<?xml version="1.0" standalone="no"?>
<!DOCTYPE svg PUBLIC "-//W3C//DTD SVG 1.1//EN" "http://www.w3.org/Graphics/SVG/1.1/DTD/svg11.dtd">
<svg xmlns="http://www.w3.org/2000/svg">
<defs >
<font id="Lora" horiz-adv-x="592" ><font-face
    font-family="Lora"
    units-per-em="1000"
    panose-1="0 0 0 0 0 0 0 0 0 0"
    ascent="1006"
    descent="-274"
    alphabetic="0" />
<glyph unicode=" " horiz-adv-x="263" />
<glyph unicode="!" horiz-adv-x="266" d="M114 230L75 643Q73 669 87 692T133 716Q165 716 178 693T190 643L151 230H114ZM132 -16Q109 -16 92 2T74 48Q74 75 92 94T133 113Q158 113 174 94T191 48Q191 21 173 3T132 -16Z" />
<glyph unicode="&quot;" horiz-adv-x="346" d="M213 491L205 716H283L274 491H213ZM70 491L62 716H140L131 491H70Z" />
<glyph unicode="#" horiz-adv-x="830" d="M154 -16L199 178H33L49 238H213L268 469H99L115 529H282L326 716H392L349 529H562L606 716H672L629 529H796V528L781 469H615L563 238H730L714 178H550L506 -16H434L479 178H270L226 -16H154ZM283 238H493L547 469H335L283 238Z" />
<glyph unicode="$" horiz-adv-x="529" d="M245 -153L244 -16Q210 -14 172 -2T106 27L111 -13H57V198H92Q97 106 146 65T275 23Q334 23 371 58T408 148Q408 193 384 223T320 278T237 324Q191 348 148 376T78 443T50 542Q50 566 60 595T92 651T150 697T239 716V833H293L292
716Q321 713 348 704T403 674L399 716H449V498H412Q409 546 394 587T346 653T253 678Q211 678 184 661T144 617T131 560Q131 522 152 494T207 444T280 401Q318 381 355 360T423 313T473 252T492 170Q492 124 471 83T406 16T297 -16V-153H245Z" />
<glyph unicode="%" horiz-adv-x="870" d="M165 -17L123 18L687 716L732 676L165 -17ZM217 335Q158 335 118 362T57 431T36 522Q36 569 57 613T118 686T217 716Q279 718 320 691T381 621T401 532Q401 481 376 436T310 363T217 335ZM220 375Q257 375 277 397T306
452T315 516Q315 541 311 569T295 623T265 665T218 681Q190 681 172 666T142 629T127 582T122 539Q122 515 126 487T141 433T171 392T220 375ZM654 -16Q592 -17 551 10T490 80T469 169Q469 221 494 265T561 337T654 365Q714 365 754 339T814 269T835 178Q835 132
814 88T753 14T654 -16ZM655 20Q683 20 701 34T730 71T745 118T749 162Q749 186 745 214T730 268T700 309T651 326Q615 326 594 304T565 249T556 185Q556 160 561 132T577 78T608 36T655 20Z" />
<glyph unicode="&amp;" horiz-adv-x="695" d="M271 -16Q227 -16 185 -6T110 28T56 89T36 180Q36 245 78 295T193 376Q167 410 150 439T125 498T117 559Q118 631 170 673T302 716Q353 716 390 698T448 648T469 576Q469 539 453 505T401 440T305 377Q332 349 364
315T430 249T490 190Q495 208 497 224T500 254Q500 277 494 299T471 337T424 354V387H599V346L516 350Q532 337 539 316T547 267Q548 248 544 219T527 157Q538 147 550 136T577 112Q622 72 654 53T703 33V0H610Q601 0 570 18T486 83Q454 42 402 13T271 -16ZM283
34Q346 32 387 54T454 111Q447 118 440 124T425 138Q358 204 307 255T219 347Q187 328 169 300T144 244T136 195Q136 140 157 105T212 53T283 34ZM283 401Q339 438 366 483T393 573Q393 621 368 652T297 684Q256 684 229 654T201 567Q201 524 224 482T283 401Z"
/>
<glyph unicode="&apos;" horiz-adv-x="208" d="M71 491L62 716H146L137 491H71Z" />
<glyph unicode="(" horiz-adv-x="305" d="M263 760L288 737Q257 696 233 651T190 557T161 456T143 350T137 239Q137 183 143 130T160 26T190 -71T232 -163T288 -248L263 -271Q226 -237 186 -185T112 -65T57 79T36 239Q36 322 57 401T112 549T186 672T263 760Z" />
<glyph unicode=")" horiz-adv-x="305" d="M43 -271L18 -248Q49 -207 73 -162T116 -68T145 33T163 139T169 250Q169 306 163 359T146 463T116 560T74 652T18 737L43 760Q80 726 120 674T194 554T249 410T270 250Q270 167 249 88T194 -60T120 -183T43 -271Z" />
<glyph unicode="*" horiz-adv-x="520" d="M125 302Q111 313 111 328T119 358T138 386Q161 411 186 436T236 480Q205 482 168 488T99 500Q83 504 68 510T44 529T42 559Q51 585 76 584T124 571Q155 557 187 541T245 508Q236 537 231 573T222 644Q220 660 222 676T233
704T260 716Q279 716 287 705T296 677T296 644Q292 610 287 574T273 508Q299 525 331 540T394 571Q409 578 426 581T457 581T476 559Q485 532 465 519T419 500Q386 494 350 488T283 480Q307 461 332 436T381 386Q392 375 400 360T409 329T394 302Q380 292 367 296T342
312T322 338Q306 367 289 401T260 463Q249 435 232 401T198 338Q190 325 179 313T155 296T125 302Z" />
<glyph unicode="+" horiz-adv-x="530" d="M42 390H488V340H42V390ZM290 583V137H240V583H290Z" />
<glyph unicode="," horiz-adv-x="253" d="M118 -179L91 -159Q102 -145 114 -119T133 -62T137 0Q130 -3 124 -4T112 -6Q93 -6 80 8T66 43Q66 71 82 86T121 101Q156 101 174 75T192 10Q192 -15 183 -51T157 -121T118 -179Z" />
<glyph unicode="-" horiz-adv-x="489" d="M67 285V355H422V289L67 285Z" />
<glyph unicode="." horiz-adv-x="246" d="M122 -16Q99 -16 82 2T64 48Q64 75 82 94T123 113Q148 113 164 94T181 48Q181 21 163 3T122 -16Z" />
<glyph unicode="/" horiz-adv-x="690" d="M79 -271L21 -235L605 760L670 719L79 -271Z" />
<glyph unicode="0" horiz-adv-x="621" d="M311 -16Q235 -16 185 16T107 102T68 220T56 347Q56 410 70 475T116 594T196 682T315 716Q388 716 436 683T513 597T554 479T566 352Q566 290 552 225T508 106T430 18T311 -16ZM317 23Q360 23 388 50T432 122T456 221T463
331Q463 392 456 453T432 565T386 647T313 678Q270 678 241 651T193 579T167 479T159 368Q159 326 163 279T177 187T206 104T251 45T317 23Z" />
<glyph unicode="1" horiz-adv-x="364" d="M74 0V33Q109 35 127 49T153 88T161 147L158 619L38 542L18 571L213 716H247L248 109Q248 90 248 72T245 40Q266 41 287 42T329 44V0H74Z" />
<glyph unicode="2" horiz-adv-x="537" d="M46 0Q46 53 62 94T107 169T170 236T243 305Q308 367 337 420T366 522Q366 560 356 595T318 654T243 677Q202 677 170 657T127 606Q137 596 141 585T145 562Q145 553 141 542T125 523T96 515Q74 516 62 532T50 570Q50
591 63 616T102 664T168 701T259 716Q299 716 336 707T404 676T451 621T469 535Q469 510 459 481T425 419T364 348T273 266Q205 210 162 161T111 76L288 71Q337 70 374 71T433 86T455 140H485L479 0H46Z" />
<glyph unicode="3" horiz-adv-x="557" d="M255 -16Q183 -16 136 5T67 59T44 120Q44 143 56 158T90 175Q108 176 118 169T133 150T137 130Q137 120 134 110T126 90Q136 56 171 41T248 26Q319 26 361 65T404 178Q404 222 390 261T338 326T227 349Q219 349 210 349T190
347V392Q201 392 211 392T231 392Q284 392 314 416T357 473T370 534Q370 575 360 607T323 658T251 677Q206 677 174 654T134 605Q143 595 146 585T150 564Q150 556 146 546T131 528T104 521Q83 521 72 536T61 572Q61 600 83 633T150 691T265 716Q319 716 365 699T439
644T467 542Q467 511 452 480T401 421T303 375Q398 365 452 314T507 185Q507 117 472 73T379 6T255 -16Z" />
<glyph unicode="4" horiz-adv-x="542" d="M407 109Q407 89 407 71T403 38Q423 39 442 39T480 41V0H229V33H236Q270 36 287 52T310 95T316 159V193H12V242L374 716H407V253L508 252V193H407V109ZM314 574L78 258L316 255V574H314Z" />
<glyph unicode="5" horiz-adv-x="545" d="M254 -16Q190 -16 145 5T76 59T52 120Q52 143 64 158T98 175Q116 176 126 169T141 150T145 130Q145 120 142 110T134 91Q138 67 159 52T207 29T258 23Q307 25 337 49T381 112T396 192Q396 220 392 254T372 318T325 369T241
389Q224 389 200 385T151 373T109 354L81 380L79 700H338Q395 700 416 715T438 765H465L459 633L125 626V406Q149 416 187 425T270 434Q332 434 375 415T446 363T487 291T500 210Q500 136 466 86T375 10T254 -16Z" />
<glyph unicode="6" horiz-adv-x="578" d="M295 -16Q206 -16 154 26T79 145T56 329Q56 365 62 414T86 516T133 614T212 688T328 716Q388 716 427 695T485 644T505 589Q505 568 495 554T462 537Q437 536 427 551T417 579Q417 589 420 600T429 621Q424 639 398 659T330
679Q284 679 253 655T202 592T171 509T156 423T150 353Q167 375 191 394T247 425T318 437Q378 437 418 417T483 363T518 291T529 213Q529 151 499 99T415 15T295 -16ZM297 23Q344 23 373 46T415 108T428 191Q428 219 423 253T405 319T365 371T297 392Q266 392 236
377T184 336T151 282Q154 234 162 188T187 105T231 46T297 23Z" />
<glyph unicode="7" horiz-adv-x="461" d="M195 -16Q176 -14 168 -2T160 28Q160 50 171 85T199 159T228 232Q247 279 273 346T330 487T395 631L131 630Q91 629 69 611T46 552H22V700H441V632Q405 557 379 489T331 353T291 209T250 45Q244 21 232 2T195 -16Z" />
<glyph unicode="8" horiz-adv-x="562" d="M276 -16Q241 -16 203 -8T133 20T80 71T59 150Q59 195 81 232T137 300T211 355Q135 401 104 446T73 535Q73 582 91 616T141 673T209 705T285 716Q336 716 380 698T452 643T480 555Q480 516 462 483T413 425T345 380Q390
354 428 321T489 248T512 166Q512 103 479 63T392 3T276 -16ZM278 24Q343 23 378 56T414 147Q414 199 378 248T249 337Q194 297 170 251T143 168Q139 104 176 65T278 24ZM310 400Q354 430 377 468T402 543Q404 608 372 642T287 677Q248 678 221 661T180 616T166
557Q166 502 207 462T310 400Z" />
<glyph unicode="9" horiz-adv-x="578" d="M257 -16Q192 -16 152 3T93 52T75 107Q75 129 86 144T119 160Q143 161 153 146T164 117Q164 107 161 97T150 76Q157 54 180 38T252 22Q298 22 329 44T379 102T408 182T421 269T425 346Q400 312 358 287T257 262Q197 262
157 282T93 336T59 408T48 485Q48 550 77 602T159 685T284 716Q355 716 400 689T472 614T508 500T519 359Q519 315 514 265T493 165T448 75T372 9T257 -16ZM278 307Q310 307 339 322T392 363T424 417Q421 464 413 510T389 594T345 655T277 678Q234 678 205 654T162
590T147 507Q147 479 152 445T170 379T210 327T278 307Z" />
<glyph unicode=":" horiz-adv-x="250" d="M125 -16Q102 -16 85 2T67 48Q67 75 85 94T126 113Q151 113 167 94T184 48Q184 21 166 3T125 -16ZM125 387Q102 387 85 405T67 451Q67 478 85 497T126 516Q151 516 167 497T184 451Q184 424 166 406T125 387Z" />
<glyph unicode=";" horiz-adv-x="263" d="M122 -179L95 -159Q106 -145 118 -119T137 -62T141 0Q134 -3 128 -4T116 -6Q97 -6 84 8T70 43Q70 71 86 86T125 101Q160 101 178 75T196 10Q196 -15 187 -51T161 -121T122 -179ZM128 387Q105 387 88 405T70 451Q70 478
88 497T129 516Q154 516 170 497T187 451Q187 424 169 406T128 387Z" />
<glyph unicode="&lt;" horiz-adv-x="530" d="M479 85L34 279V346L479 544V482L102 316L479 149V85Z" />
<glyph unicode="=" horiz-adv-x="530" d="M42 465H488V415H42V465ZM42 315H488V265H42V315Z" />
<glyph unicode="&gt;" horiz-adv-x="530" d="M42 544L487 350V283L42 85V147L419 313L42 480V544Z" />
<glyph unicode="?" horiz-adv-x="474" d="M226 188Q197 188 172 203T146 255Q146 277 159 296T193 334T238 373Q276 405 308 445T342 544Q343 581 332 611T294 659T220 677Q192 677 168 666T128 639T110 606Q115 598 118 588T122 567Q122 559 117 549T102 531T76
524Q54 526 44 540T33 577Q33 606 57 638T127 693T235 716Q313 716 357 690T420 624T437 542Q434 501 411 468T354 406T289 354T235 309T213 267Q213 255 222 245T255 234Q263 234 273 235T292 241L304 206Q288 197 266 193T226 188ZM232 -16Q212 -16 195 -1T178
43Q178 67 195 84T232 102Q255 102 270 85T286 43Q286 18 271 1T232 -16Z" />
<glyph unicode="@" horiz-adv-x="796" d="M418 -95Q326 -97 257 -70T142 7T73 120T50 257Q50 320 71 384T134 504T242 595T398 636Q487 641 553 615T664 542T731 437T754 318Q754 239 731 188T674 109T605 72T544 66Q510 72 493 89T472 131T470 185T479 243Q448
152 410 111T325 70Q283 70 251 103T219 209Q219 264 234 313T279 400T353 460T454 482Q477 482 507 479T562 469Q558 435 554 400T545 332T538 269T532 214Q530 188 531 164T541 122T568 100Q589 96 609 106T645 139T672 198T683 277Q686 398 647 469T541 571T390
594Q328 589 280 561T197 487T145 384T127 263Q127 182 151 123T216 26T309 -31T417 -52Q452 -53 493 -47T577 -21T654 41L678 16Q630 -39 564 -66T418 -95ZM342 108Q369 108 395 140T443 223T478 332T491 443Q479 448 464 450T429 452Q394 452 368 431T324 375T298
299T289 218Q289 168 303 138T342 108Z" />
<glyph unicode="A" horiz-adv-x="626" d="M-6 0V33Q24 33 40 49T66 93T91 158L297 719H321L544 150Q552 129 562 96T570 40Q587 41 604 42T638 44V0H409V33Q447 34 459 50T468 88T458 128L423 222L163 216L128 109Q121 85 116 71T103 40Q123 41 142 42T181 44V0H-6ZM178
259H409L338 450Q327 481 316 511T293 573H291Q281 545 271 517T249 460L178 259Z" />
<glyph unicode="B" horiz-adv-x="622" d="M55 0V33Q93 34 107 50T122 95T124 161V581Q124 608 125 627T127 660Q109 659 91 658T55 656V700Q110 701 165 701T281 702Q397 702 462 661T526 531Q526 499 508 467T453 411T361 376V374Q471 374 527 324T583 196Q583
135 552 91T468 24T347 0H55ZM208 40Q224 39 246 39T288 38T314 38Q391 38 438 76T486 190Q486 251 462 285T399 333T314 347Q284 347 260 347T211 344V118Q211 91 211 72T208 40ZM211 383L284 385Q341 386 374 408T421 465T435 536Q434 590 411 618T353 656T286
666Q253 666 237 657T216 627T211 569V383Z" />
<glyph unicode="C" horiz-adv-x="699" d="M608 477Q598 571 543 623T400 675Q347 675 301 653T219 588T164 487T144 354Q144 260 180 188T277 76T412 36Q477 36 540 65T643 151L669 130Q626 71 576 39T477 -4T386 -16Q311 -16 249 11T141 86T71 199T46 339Q46
410 67 477T132 598T240 684T393 716Q449 716 499 701T595 655L590 709H644V477H608Z" />
<glyph unicode="D" horiz-adv-x="745" d="M55 33Q93 35 107 50T122 93T124 156V588Q124 608 125 626T127 660Q109 659 91 658T55 656V700L291 701Q381 701 456 680T585 616T669 506T699 349Q699 280 675 217T603 106T484 29T318 0H55V33ZM211 118Q211 91 211 72T208
40Q235 39 257 39T295 38T315 38Q380 38 432 62T522 128T580 228T601 353Q601 448 567 517T461 625T280 664Q243 664 229 649T213 607T211 544V118Z" />
<glyph unicode="E" horiz-adv-x="622" d="M403 259Q403 303 391 322T353 345T284 347L211 344V115Q211 88 211 69T208 37L399 40Q443 41 475 54T525 102T543 195H577L571 0H55V33Q93 35 107 50T122 93T124 156V588Q124 608 125 626T127 660Q109 659 91 658T55
656V700H536L541 525H508Q508 584 490 614T442 655T373 665L287 663Q250 662 234 649T215 611T211 544V384L399 383L392 469H436V259H403Z" />
<glyph unicode="F" horiz-adv-x="548" d="M55 0V33Q93 35 107 50T122 93T124 156V588Q124 608 125 626T127 660Q109 659 91 658T55 656V700H519L524 525H491Q491 584 472 614T422 655T353 665L280 663Q243 662 229 646T213 602T211 540V368L385 367L378 454H422V243H390Q390
288 378 307T339 330T271 332L211 329V119Q211 92 211 73T208 40Q225 41 242 41T276 43T310 44V0H55Z" />
<glyph unicode="G" horiz-adv-x="761" d="M387 -16Q287 -16 210 26T90 147T47 335Q47 406 68 473T133 596T242 683T395 716Q431 716 468 710T539 691T602 661L598 709H653V480H617Q613 543 584 586T507 653T402 676Q349 676 303 653T221 587T165 486T145 358Q145
264 179 190T273 74T413 32Q440 32 469 37T528 53T584 82V204Q584 228 584 252T584 301Q567 300 549 299T514 297V341H740V308Q712 308 697 294T676 259T669 219T668 189V36H641Q625 36 597 30T533 10Q502 -2 461 -9T387 -16Z" />
<glyph unicode="H" horiz-adv-x="780" d="M55 0V33Q93 35 107 50T122 93T124 156V588Q124 608 125 626T127 660Q109 659 91 658T55 656V700H280V667Q243 666 229 650T213 607T211 544V378H569V588Q569 608 570 626T572 660Q554 659 536 658T500 656V700H725V667Q688
666 674 650T658 607T656 544V119Q656 92 656 73T653 40Q671 41 689 42T725 44V0H500V33Q538 35 552 50T567 93T569 156V338L211 334V119Q211 92 211 73T208 40Q226 41 244 42T280 44V0H55Z" />
<glyph unicode="I" horiz-adv-x="335" d="M280 667Q243 666 229 650T213 607T211 544V119Q211 92 211 73T208 40Q226 41 244 42T280 44V0H55V33Q93 35 107 50T122 93T124 156V588Q124 608 125 626T127 660Q109 659 91 658T55 656V700H280V667Z" />
<glyph unicode="J" horiz-adv-x="373" d="M104 -16Q76 -16 52 -8T13 17T-2 55Q-2 75 8 90T41 107Q66 109 75 94T85 63Q85 59 84 53T81 41Q87 31 100 28T120 25Q150 26 164 52T179 139V571Q179 594 179 616T179 660Q154 659 129 658T77 656V700H343V667Q310 667
294 654T272 619T266 568V244Q266 103 228 44T104 -16Z" />
<glyph unicode="K" horiz-adv-x="683" d="M55 0V33Q93 35 107 50T122 93T124 156V588Q124 608 125 626T127 660Q109 659 91 658T55 656V700H280V667Q243 666 229 650T213 607T211 544V380H286L411 577Q424 597 443 621T482 661Q467 660 452 660T421 659V700H636V667Q594
664 561 653T498 615T434 532L336 376Q365 359 383 337T419 291L531 142Q569 92 593 69T637 39T678 33V0H556Q546 0 530 14T494 50T455 98L335 260Q316 285 297 307T260 341L211 340V119Q211 92 211 73T208 40Q226 41 244 42T280 44V0H55Z" />
<glyph unicode="L" horiz-adv-x="578" d="M55 0V33Q93 35 107 50T122 93T124 156V588Q124 608 125 626T127 660Q109 659 91 658T55 656V700H280V667Q243 666 229 650T213 607T211 544V115Q211 88 211 69T208 37L395 40Q458 41 490 80T523 207H557L551 0H55Z" />
<glyph unicode="M" horiz-adv-x="918" d="M432 -10Q388 90 343 189T255 391Q241 423 228 455T202 521T176 587Q176 576 176 565T175 543Q174 507 173 457T169 349T166 234T164 125Q163 103 163 81T160 40Q179 41 197 42T235 44V0H44V33Q75 34 89 46T108 80T113
125L132 581Q133 601 133 621T135 660Q117 659 99 659T63 657V700H216L388 303Q401 273 413 243T439 183T466 122H468Q479 149 494 186T519 251Q563 361 610 471T704 700H852V667Q827 668 811 658T788 623T783 558L809 103Q811 86 811 70T811 41Q829 42 847 42T884
44V0H660V33Q691 34 706 48T724 88T726 152L706 482Q705 498 704 514T702 546T700 578Q697 571 694 563T687 546L462 -10H432Z" />
<glyph unicode="N" horiz-adv-x="762" d="M602 -16L203 520Q194 532 186 543T168 567H167L170 139Q170 114 170 89T168 40Q186 41 204 42T240 44V0H57V33Q88 33 101 46T119 78T123 112L124 593Q124 610 124 627T124 660Q108 659 91 658T57 656V700H176L551 198Q564
181 576 164T602 130H603L604 588Q604 608 605 626T607 660Q589 659 571 658T535 656V700H719V667Q682 666 668 650T653 607T652 544L650 -16H602Z" />
<glyph unicode="O" horiz-adv-x="794" d="M402 -16Q307 -16 239 16T129 101T66 220T46 350Q46 413 67 477T131 596T240 683T394 716Q486 716 553 683T663 596T728 477T750 350Q750 288 729 224T665 105T556 17T402 -16ZM404 25Q466 25 512 51T588 122T634 221T650
331Q650 393 633 454T583 565T502 645T391 676Q329 676 283 649T206 578T160 479T144 368Q144 313 159 253T207 141T288 57T404 25Z" />
<glyph unicode="P" horiz-adv-x="606" d="M55 33Q93 35 107 50T122 93T124 156V588Q124 608 125 626T127 660Q109 659 91 658T55 656V700Q108 701 164 701T278 702Q375 702 441 680T542 615T580 508Q582 469 569 427T519 347T416 286T247 263Q243 263 232 263T211
264V119Q211 92 211 73T208 40Q224 41 239 42T269 43T300 45V0H55V33ZM211 305Q230 303 243 303T276 302Q333 302 380 324T455 389T483 489Q483 536 468 569T426 623T360 653T276 663Q241 663 228 648T213 607T211 544V305Z" />
<glyph unicode="Q" horiz-adv-x="796" d="M754 -218Q718 -218 692 -216T641 -202T585 -162Q540 -121 510 -88T453 -36T395 -16Q302 -14 236 18T127 104T66 221T46 350Q46 413 67 477T131 596T240 683T394 716Q486 716 553 683T663 596T728 477T750 350Q750 295
734 239T684 132T601 45T483 -7Q508 -7 529 -11T574 -29T626 -71Q661 -103 685 -125T726 -160T757 -179T786 -185V-218H754ZM404 25Q466 25 512 51T588 122T634 221T650 331Q650 393 633 454T583 565T502 645T391 676Q329 676 283 649T206 578T160 479T144 368Q144
313 159 253T207 141T288 57T404 25Z" />
<glyph unicode="R" horiz-adv-x="628" d="M55 0V33Q93 35 107 50T122 93T124 156V588Q124 608 125 626T127 660Q109 659 91 658T55 656V700Q111 701 168 702T284 701Q381 700 440 679T528 618T556 522Q557 483 542 443T486 370T369 322Q389 308 404 286T438 235L506
128Q523 101 539 80T576 46T628 33V0H502Q473 26 454 52T413 111L346 218Q333 239 317 266T279 313Q263 312 246 312T211 313V119Q211 92 211 73T208 40Q220 41 232 41T256 43T280 44V0H55ZM273 350Q328 352 369 368T435 419T459 511Q459 549 449 577T416 625T360
653T280 663Q243 663 229 648T213 607T211 544V352Q227 351 241 350T273 350Z" />
<glyph unicode="S" horiz-adv-x="567" d="M448 488Q445 536 425 579T367 649T270 676Q208 676 175 641T142 559Q142 517 166 489T228 439T310 397Q348 380 386 361T455 316T504 257T523 174Q523 119 496 76T416 9T289 -16Q244 -16 196 -3T111 35L116 -8H64L58
205H97Q102 117 158 72T293 26Q332 26 365 40T417 83T437 151Q437 196 413 226T351 278T270 320Q232 337 195 356T128 399T79 458T60 540Q60 566 69 596T100 653T162 698T263 716Q301 716 348 706T437 665L433 708H484V488H448Z" />
<glyph unicode="T" horiz-adv-x="640" d="M579 489Q578 548 567 587T529 645T449 664H364L363 119Q363 92 363 73T360 40Q381 41 401 42T443 44V0H208V33Q246 35 259 51T274 94T276 156L277 663L174 662Q111 662 85 620T59 489H22L28 700H611L617 489H579Z" />
<glyph unicode="U" horiz-adv-x="752" d="M255 667Q222 667 208 653T190 621T187 588V336Q187 280 194 228T223 133T285 66T394 41Q466 41 511 75T578 169T601 307L604 588Q604 608 605 626T607 660Q589 659 572 658T536 656V700H722V667Q684 666 670 650T654
607T652 544L650 312Q650 247 636 188T591 83T508 11T381 -16Q301 -16 247 5T160 70T113 181T99 341V544Q99 570 100 605T103 660Q85 659 67 659T31 657V700H255V667Z" />
<glyph unicode="V" horiz-adv-x="653" d="M322 -10L95 522Q73 573 64 604T52 658Q38 657 24 657T-4 656V700H228L227 666Q177 663 167 636T177 558Q201 499 223 444T272 325Q296 269 318 218T353 132H355Q366 167 377 199T405 275Q435 359 455 417T491 516T516
586Q525 612 532 630T545 660Q526 659 507 658T468 656V700H671V667Q627 665 604 644T561 569Q559 564 556 556T546 528T526 473T491 374T434 218T350 -10H322Z" />
<glyph unicode="W" horiz-adv-x="995" d="M284 -10L105 522Q88 575 78 605T63 658Q49 657 35 657T7 656V700H250V667Q192 664 181 641T185 558Q202 492 222 439T261 325Q275 280 289 242T319 157H321Q326 174 331 193T343 230T354 263T362 289Q390 378 417 461T466
608T495 702H527Q536 669 553 618T589 511T624 405T651 325Q665 280 680 236T709 145H712Q721 174 731 207T753 274Q779 348 795 398T822 481T840 538T856 586Q862 603 869 622T887 659Q867 658 847 658T807 656V700H1010V667Q976 663 957 652T922 611T886 519Q840
383 797 252T706 -10H676L524 424Q515 450 507 475T489 525Q481 500 473 475T456 425L313 -10H284Z" />
<glyph unicode="X" horiz-adv-x="649" d="M12 0V33Q60 43 87 73T149 153L279 339Q210 436 171 490T110 576Q91 605 82 622T64 658Q51 657 37 657T9 656V700H268V667L224 665Q188 664 181 652T181 621T201 584Q219 554 252 507T325 405L421 544Q447 580 470 613T510
660Q489 659 468 658T426 656V700H623V667Q591 663 563 641T511 589T466 528L353 368Q389 320 423 275T486 193T529 135Q546 112 563 89T598 42Q612 43 627 43T656 44V0H411V33Q450 32 462 43T470 72T453 106Q430 137 391 186T306 300Q281 264 257 228T207 153Q189
126 170 97T125 39Q146 41 166 42T208 44V0H12Z" />
<glyph unicode="Y" horiz-adv-x="634" d="M215 0V33Q253 35 266 51T281 94T283 156L284 270L110 545Q85 585 73 612T56 658Q40 657 25 657T-6 656V700H252V667Q206 667 188 653T174 615T199 558L279 432Q288 418 298 403T318 373T341 340H343Q354 362 365 382T386
422L471 583Q476 593 483 606T500 634T519 659Q500 658 480 658T440 656V700H644V667Q595 664 564 633T497 538Q463 474 432 415T371 300Q371 282 371 252T370 192T370 140T370 119Q370 92 370 73T367 40Q388 41 408 42T450 44V0H215Z" />
<glyph unicode="Z" horiz-adv-x="610" d="M43 0V46Q99 125 186 250T398 573Q412 596 427 618T462 663L207 659Q148 657 119 618T89 493H55L61 700H557V665L198 120Q176 88 161 70T130 37L373 41Q439 42 483 81T528 205H562L556 0H43Z" />
<glyph unicode="[" horiz-adv-x="359" d="M79 -255L80 755H345V695L155 692L150 -192L347 -195V-255H79Z" />
<glyph unicode="\" horiz-adv-x="690" d="M612 -271L670 -235L86 760L21 719L612 -271Z" />
<glyph unicode="]" horiz-adv-x="359" d="M280 755L279 -255H14V-195L204 -192L209 692L12 695V755H280Z" />
<glyph unicode="^" horiz-adv-x="823" d="M675 437L409 681L142 441H60L368 716H457L763 437H675Z" />
<glyph unicode="_" horiz-adv-x="729" d="M57 -111V-50L672 -54V-111H57Z" />
<glyph unicode="`" horiz-adv-x="252" d="M179 580L67 686Q49 705 47 719T49 744T58 757Q61 759 70 763T94 764T123 738L207 603L179 580Z" />
<glyph unicode="a" horiz-adv-x="516" d="M348 0Q345 17 344 30T341 57Q307 23 268 4T184 -16Q108 -16 71 18T34 103Q34 149 62 182T136 237T235 269T339 279V341Q339 376 333 407T307 458T243 479Q214 480 184 468T139 427Q147 419 149 409T152 389Q152 377 142
362T107 347Q86 347 75 361T64 396Q64 430 89 457T160 500T262 516Q346 516 386 472T425 331Q425 294 425 257T425 182T424 106Q424 90 423 74T420 38Q438 39 455 40T491 42V0H348ZM339 245Q305 244 268 237T199 214T148 175T129 115Q131 78 153 60T207 41Q248
41 278 56T339 100Q338 111 338 124T338 151Q338 156 338 183T339 245Z" />
<glyph unicode="b" horiz-adv-x="582" d="M76 625Q76 641 76 655T79 690Q61 689 44 688T8 686V728Q52 728 76 732T113 742T133 755H162V457Q190 485 228 500T313 516Q377 516 428 485T510 397T540 262Q540 177 503 115T407 18T280 -16Q246 -16 206 -4T133 45L109
0H74L76 625ZM162 157Q162 104 179 76T223 36T280 25Q328 25 363 52T417 126T437 237Q437 305 420 356T369 437T283 467Q250 467 218 452T162 410V157Z" />
<glyph unicode="c" horiz-adv-x="532" d="M288 -16Q221 -16 165 14T75 102T41 241Q41 293 60 342T113 430T196 493T302 516Q358 516 399 499T464 454T487 393Q487 371 475 356T440 340Q415 339 405 355T394 385Q394 395 397 405T409 425Q401 449 381 460T340 475T304
479Q236 479 190 425T143 266Q143 199 164 147T225 66T315 36Q362 36 405 61T472 122L498 102Q472 60 436 34T361 -4T288 -16Z" />
<glyph unicode="d" horiz-adv-x="598" d="M258 -16Q197 -16 148 14T71 102T42 236Q42 318 75 381T166 480T299 516Q332 516 364 508T416 488V625Q416 641 416 655T419 690Q401 689 384 688T348 686V728Q392 728 416 732T452 742T472 755H501V106Q501 90 500 74T497
38Q515 39 532 40T568 42V0H425Q422 15 421 27T418 52Q390 21 349 3T258 -16ZM294 33Q327 33 360 52T416 99Q415 111 415 124T415 154L416 442Q392 460 364 468T305 477Q255 477 218 448T162 367T145 245Q147 184 164 136T214 61T294 33Z" />
<glyph unicode="e" horiz-adv-x="542" d="M286 -16Q217 -16 162 16T74 108T42 249Q42 319 73 380T162 478T294 516Q336 516 372 503T437 462T481 393T497 295L145 289Q145 213 161 156T215 67T310 35Q341 35 373 46T434 76T479 118L503 98Q476 56 438 31T360 -5T286
-16ZM148 331H403Q403 367 393 400T358 455T295 477Q237 477 199 443T148 331Z" />
<glyph unicode="f" horiz-adv-x="338" d="M107 521Q107 632 147 696T287 760Q309 760 333 753T376 729T394 686Q394 667 384 654T353 641Q329 640 320 655T310 682Q310 688 311 694T315 707Q308 716 296 720T272 724Q241 724 224 706T200 661T193 605V500H328V461L193
458L194 106Q194 86 194 71T190 38Q206 39 221 39T253 41V0H49V30Q80 30 92 45T106 88T108 152L107 457L25 455V500H107V521Z" />
<glyph unicode="g" horiz-adv-x="553" d="M285 -271Q195 -271 140 -251T60 -200T35 -136Q35 -105 49 -82T85 -41T127 -16Q95 -5 77 13T58 63Q58 98 86 128T158 166Q112 188 85 227T57 318Q57 378 88 422T167 491T268 516Q301 516 334 507T395 479Q405 507 423
529T466 563T516 576Q542 576 555 563T569 526Q569 519 565 509T552 492T526 485Q509 485 498 495T484 520Q459 516 445 497T426 454Q450 432 464 401T479 335Q479 279 450 235T372 167T268 142Q249 142 235 144T201 147Q164 147 141 129T125 86Q133 62 174 56T284
46Q361 43 416 28T500 -18T530 -104Q530 -144 509 -175T452 -228T373 -260T285 -271ZM284 -232Q370 -232 418 -200T466 -125Q466 -88 441 -69T373 -42T274 -33Q247 -32 221 -31T171 -25Q144 -43 129 -69T114 -124Q114 -173 160 -202T284 -232ZM271 178Q308 178
332 196T369 245T382 315Q382 359 369 397T331 458T266 481Q212 481 183 441T153 340Q153 292 167 256T207 199T271 178Z" />
<glyph unicode="h" horiz-adv-x="599" d="M365 30Q396 30 408 45T422 88T424 152V292Q424 378 397 421T310 463Q273 462 238 445T180 401V106Q180 86 179 71T175 38Q191 39 206 39T238 41V0H34V30Q65 30 77 45T91 88T94 152V625Q94 641 94 655T97 690Q79 689 62
688T26 686V728Q70 728 94 732T131 742T151 755H180V450Q202 469 229 483T286 507T344 516Q431 516 469 462T509 292L510 106Q510 86 510 71T506 38Q522 39 537 39T569 41V0H365V30Z" />
<glyph unicode="i" horiz-adv-x="281" d="M44 30Q75 30 87 45T101 88T103 152V380Q103 396 104 410T107 445Q89 444 72 443T36 441V483Q80 483 104 487T140 497T160 510H189V106Q189 86 189 71T185 38Q201 39 216 39T248 41V0H44V30ZM141 609Q120 609 104 626T88
668Q88 693 104 710T142 728Q165 728 180 711T196 668Q196 643 180 626T141 609Z" />
<glyph unicode="j" horiz-adv-x="212" d="M-9 -271Q-50 -271 -69 -254T-88 -215Q-88 -197 -77 -183T-45 -168Q-20 -167 -11 -182T-1 -210Q-1 -212 -1 -214T-2 -219Q12 -225 24 -225Q53 -225 68 -204T88 -151T93 -86L95 380Q95 396 95 410T98 445Q80 444 63 443T27
441V483Q71 483 95 487T132 497T152 510H181V-3Q181 -96 156 -155T88 -243T-9 -271ZM133 609Q112 609 96 626T80 668Q80 693 96 710T134 728Q157 728 172 711T188 668Q188 643 172 626T133 609Z" />
<glyph unicode="k" horiz-adv-x="537" d="M35 0V30Q66 30 77 45T91 88T93 152L94 625Q94 641 94 655T97 690Q79 689 62 688T26 686V728Q70 728 94 732T130 742T150 755H179V282H219L341 410Q358 427 372 440T400 463L332 460V500H514V470Q480 467 451 449T397
407T354 365L276 283Q296 274 310 260T338 229L409 138Q414 132 426 115T456 78T493 44T530 30V0H439Q411 0 386 29T333 94Q307 130 287 159T250 211T220 245L179 243V106Q179 86 179 71T175 38Q191 39 207 39T239 41V0H35Z" />
<glyph unicode="l" horiz-adv-x="272" d="M34 30Q65 30 77 45T91 88T93 152V625Q93 641 93 655T96 690Q78 689 61 688T25 686V728Q69 728 93 732T130 742T150 755H179L180 106Q180 86 179 71T175 38Q191 39 206 39T238 41V0H34V30Z" />
<glyph unicode="m" horiz-adv-x="894" d="M44 0V30Q75 30 87 45T101 88T103 152V380Q103 396 103 412T107 445Q89 444 72 443T36 441V483Q80 483 102 487T136 497T154 510H183Q185 500 185 487T187 457Q217 483 256 499T334 516Q384 516 418 498T471 449Q505 477
549 496T637 516Q724 516 765 464T804 292L803 106Q803 86 803 71T799 38Q815 39 830 39T862 41V0H658V30Q689 30 701 45T715 88T717 152V292Q717 378 690 421T603 463Q572 463 541 449T487 414Q492 398 494 380T497 341Q496 283 496 224T495 106Q495 86 495 71T491
38Q507 39 522 39T554 41V0H350V30Q381 30 392 45T406 88T409 152L410 292Q411 378 385 422T300 465Q269 465 239 452T188 417Q188 405 188 392T189 363V106Q189 86 189 71T185 38Q201 39 216 39T248 41V0H44Z" />
<glyph unicode="n" horiz-adv-x="607" d="M44 0V30Q75 30 87 45T101 88T103 152L104 380Q104 396 104 412T108 445Q90 444 73 443T37 441V483Q81 483 103 487T137 497T155 510H184Q185 503 185 494T187 474T188 449Q210 468 236 483T292 507T351 516Q438 516 478
462T518 292V106Q518 86 518 71T514 38Q530 39 545 39T577 41V0H373V30Q404 30 416 45T430 88T432 152V292Q431 378 404 422T317 465Q281 464 247 446T189 400Q190 392 190 382T190 361L189 106Q189 86 189 71T185 38Q201 39 216 39T248 41V0H44Z" />
<glyph unicode="o" horiz-adv-x="585" d="M292 -16Q222 -16 165 16T75 106T41 238Q41 317 74 380T164 479T292 516Q362 516 419 483T510 392T544 262Q544 185 511 122T420 21T292 -16ZM300 24Q353 24 384 54T428 132T442 233Q442 278 434 321T407 400T361 457T292
478Q240 478 207 448T159 370T143 267Q143 205 160 150T212 59T300 24Z" />
<glyph unicode="p" horiz-adv-x="597" d="M35 -255V-225Q66 -225 78 -210T92 -167T94 -103L96 380Q96 396 96 412T100 445Q82 444 65 443T29 441V483Q73 483 95 487T128 497T146 510H176Q177 500 178 487T180 456Q210 483 251 499T335 516Q393 516 443 486T524
401T555 268Q555 183 520 119T426 20T300 -16Q265 -16 236 -8T180 17V-149Q180 -169 180 -184T176 -217Q192 -216 207 -216T239 -214V-255H35ZM298 24Q346 24 380 53T433 134T452 252Q452 306 437 355T388 436T299 467Q265 467 234 451T181 411Q181 407 181 400T182
374T182 319T182 220T181 63Q206 44 235 34T298 24Z" />
<glyph unicode="q" horiz-adv-x="576" d="M357 -255V-225Q388 -225 400 -210T414 -167T416 -103V47Q390 17 352 1T266 -16Q204 -16 153 15T72 104T42 239Q42 323 76 385T169 481T299 516Q341 516 375 505T435 494Q446 494 455 497T473 510H501L502 -149Q502 -169
502 -184T498 -217Q514 -216 529 -216T561 -214V-255H357ZM302 33Q335 33 365 51T416 97V359Q416 399 405 425T369 465T301 479Q253 479 218 452T164 377T145 263Q145 199 163 147T217 64T302 33Z" />
<glyph unicode="r" horiz-adv-x="433" d="M44 30Q75 30 87 45T101 88T103 152V380Q103 396 103 412T107 445Q89 444 72 444T36 442V483H67Q110 483 126 491T154 510H183Q185 494 186 471T188 411Q203 436 229 460T287 500T356 516Q384 516 405 501T426 453Q426
445 421 434T405 414T376 405Q354 406 341 422T331 461Q306 462 280 448T230 410T189 352L190 106Q190 86 190 71T186 38Q202 39 217 39T249 41V0H44V30Z" />
<glyph unicode="s" horiz-adv-x="463" d="M249 -16Q199 -16 160 -3T96 28L100 -7H58L52 165H83Q85 124 106 92T160 41T231 23Q257 23 282 31T324 57T341 102Q341 130 325 148T281 181T223 207Q193 219 163 232T108 263T67 307T52 371Q52 392 60 417T87 464T139
501T223 516Q250 516 283 507T347 473L345 511H387V336H355Q353 371 339 403T298 457T228 479Q182 479 156 456T130 403Q130 372 149 352T200 316T266 287Q304 271 340 252T399 205T422 131Q422 81 397 48T332 0T249 -16Z" />
<glyph unicode="t" horiz-adv-x="387" d="M232 -16Q209 -16 185 -10T141 16T108 71T96 168L98 458L21 457V500Q47 501 74 519T122 570T152 640H186V500H354V461L186 459L184 181Q184 136 191 105T216 57T260 41Q288 41 312 57T356 101L383 79Q361 46 340 27T298
-1T261 -13T232 -16Z" />
<glyph unicode="u" horiz-adv-x="597" d="M255 -16Q201 -16 165 4T110 72T91 202V380Q91 396 91 412T95 445Q78 444 61 444T26 442V483H57Q100 483 119 491T150 510H179V205Q179 119 203 77T287 35Q325 36 359 58T415 112V369Q415 393 416 410T420 445Q402 444
384 444T348 442V483H379Q422 483 441 491T472 510H501L500 132Q500 116 499 87T496 38Q514 39 532 40T568 42V0H425Q422 17 421 32T418 60Q387 29 343 7T255 -16Z" />
<glyph unicode="v" horiz-adv-x="505" d="M234 -3L91 323Q75 361 66 388T54 433T49 462L6 459V500H190V470Q160 470 152 455T149 414T167 359L244 183Q252 166 259 148T274 109H275Q280 124 286 141T298 174L378 393Q386 417 395 435T408 462L344 459V500H502V470Q480
470 465 455T437 410T405 335L274 -3H234Z" />
<glyph unicode="w" horiz-adv-x="801" d="M216 -3L85 381Q78 402 73 417T64 443T59 462L6 459V500H218V470Q173 469 169 440T180 362L226 222Q234 198 242 174T258 125Q267 152 276 179T295 235L384 500H425L526 209Q534 187 542 164T558 118Q566 140 573 161T588
205L654 395Q661 415 668 433T684 462L626 459V500H800V470Q774 469 758 463T730 447T712 423T699 391L555 -3H515L420 270Q414 288 408 305T396 340T384 375Q378 358 372 341T360 306T348 270L254 -3H216Z" />
<glyph unicode="x" horiz-adv-x="530" d="M24 0V30Q55 38 73 56T119 111L219 241Q205 260 185 286T148 337T120 374Q96 406 85 427T69 461L22 459V500H228V470Q183 469 178 450T209 379L267 300L358 410Q373 428 383 440T403 463L334 459V500H498V470Q471 462
452 450T415 417T369 363L292 271L430 100Q441 85 452 71T474 38L519 41V0H326V30Q350 30 360 41T350 79L245 209L161 94Q146 74 138 64T115 38L192 41V0H24Z" />
<glyph unicode="y" horiz-adv-x="528" d="M121 -271Q90 -271 68 -256T46 -210Q46 -192 58 -177T89 -162Q113 -161 121 -177T130 -205Q130 -208 130 -211T129 -219Q132 -221 140 -221Q152 -221 166 -211T191 -182Q204 -160 221 -116T261 -11L105 323Q79 379 68
412T52 461L4 459V500H211V470H207Q165 467 161 439T184 352L301 101Q324 165 345 227T387 352Q395 374 403 397T420 439T436 463L367 459V500H524V470Q487 456 469 424T431 340L306 -9Q276 -93 251 -151T196 -240T121 -271Z" />
<glyph unicode="z" horiz-adv-x="511" d="M40 0V41L319 400Q335 420 350 439T376 465L188 462Q151 462 131 443T101 392T86 321H55L67 500H459V468L177 97Q164 81 154 69T125 41L318 38Q360 38 384 57T420 109T438 182H467L455 0H40Z" />
<glyph unicode="{" horiz-adv-x="334" d="M294 -271Q226 -271 187 -247T132 -175T116 -57Q116 -28 118 7T123 76T126 136Q126 187 106 212T30 237H7V289H30Q86 289 106 312T126 386Q126 425 121 467T116 554Q116 625 132 670T187 738T294 760H322V726Q271 728
243 712T204 661T193 568Q193 546 196 515T203 452T206 397Q206 356 190 329T149 286T94 264V262Q123 257 148 241T190 196T206 125Q206 102 203 64T197 -11T193 -71Q193 -128 204 -167T243 -225T322 -243V-271H294Z" />
<glyph unicode="|" horiz-adv-x="231" d="M82 -271L79 760H154L150 -271H82Z" />
<glyph unicode="}" horiz-adv-x="334" d="M40 -271Q108 -271 147 -247T202 -175T218 -57Q218 -28 216 7T211 76T208 136Q208 187 228 212T304 237H327V289H304Q248 289 228 312T208 386Q208 425 213 467T218 554Q218 625 202 670T147 738T40 760H12V726Q63 728
91 712T130 661T141 568Q141 546 138 515T131 452T128 397Q128 356 144 329T185 286T240 264V262Q211 257 186 241T144 196T128 125Q128 102 131 64T137 -11T141 -71Q141 -128 130 -167T91 -225T12 -243V-271H40Z" />
<glyph unicode="~" horiz-adv-x="530" d="M368 231Q331 231 306 242T260 268T218 294T166 306Q125 306 98 292T43 258V321Q75 347 102 360T170 374Q209 374 233 364T277 339T314 313T360 299Q396 296 429 309T487 346V283Q467 261 438 246T368 231Z" />
<glyph unicode="&#xa0;" horiz-adv-x="263" />
<glyph unicode="&#xa1;" horiz-adv-x="243" d="M140 270L179 -143Q181 -169 167 -192T121 -216Q89 -216 76 -193T64 -143L103 270H140ZM122 516Q145 516 162 498T180 452Q180 425 162 406T121 387Q96 387 80 406T63 452Q63 479 81 497T122 516Z" />
<glyph unicode="&#xa2;" horiz-adv-x="531" d="M249 -134V-16Q189 -8 141 24T64 112T36 241Q36 303 62 362T137 463T250 516V622H315L314 516Q391 512 436 476T482 394Q482 372 470 357T436 341Q410 340 400 356T389 386Q389 396 392 406T404 426Q396 450 376
461T335 476T299 480Q231 480 185 425T138 266Q138 199 159 147T220 65T310 35Q357 35 400 60T467 122L493 102Q458 47 407 18T308 -16L307 -134H249Z" />
<glyph unicode="&#xa3;" horiz-adv-x="548" d="M129 360Q122 389 117 422T111 497Q111 564 135 613T200 689T296 716Q355 716 389 697T437 650T452 600Q452 582 442 570T412 556Q397 556 389 562T376 578T372 595Q372 601 374 610T385 629Q379 649 359 663T304
678Q267 678 242 658T203 606T190 537Q190 486 198 444T214 360H366V312H223Q229 268 229 238T217 180T177 117Q189 119 202 120T229 121Q272 121 309 106T376 76T429 61Q451 61 465 76T482 124H514Q512 64 487 24T412 -16Q381 -16 352 -2T294 32T235 65T171 80Q167
80 163 80T155 79Q150 41 130 13T84 -16Q67 -16 57 -5T47 21Q47 48 71 72T134 108Q145 125 152 148T160 199Q160 231 155 258T142 312H63V360H129Z" />
<glyph unicode="&#xa4;" horiz-adv-x="535" d="M102 40L61 72L120 139Q84 189 84 254Q84 286 94 317T123 374L61 444L102 477L156 409Q178 427 206 437T268 448Q303 448 331 438T381 409L435 477L475 444L413 374Q433 348 442 317T452 254Q452 189 416 139L475
72L435 40L384 105Q362 87 333 77T268 67Q233 67 204 77T153 104L102 40ZM268 106Q298 106 317 122T346 164T361 218T366 271Q366 290 361 314T345 360T315 398T268 413Q240 413 221 398T191 361T175 314T170 271Q170 247 174 219T189 165T219 123T268 106Z" />
<glyph unicode="&#xa5;" horiz-adv-x="705" d="M249 0V33Q280 34 294 45T313 83T317 163L189 162V209L317 208V271L189 270V317L288 316L144 545Q119 585 107 612T90 658Q74 657 59 657T28 656V700H286V667Q240 667 222 653T208 615T233 558L316 426Q327 410 334
399T351 375T377 340Q382 349 386 358T395 375T404 392T413 409T422 426L505 583Q510 593 517 606T534 634T553 659Q534 658 514 658T474 656V700H678V667Q629 664 598 633T531 538L413 315H534V272L404 271L403 208L534 207V164L403 163Q404 125 404 103T404 67T401
40Q422 41 442 42T484 44V0H249Z" />
<glyph unicode="&#xa6;" horiz-adv-x="243" d="M87 385L84 760H159L155 385H87ZM87 -271L84 101H159L155 -271H87Z" />
<glyph unicode="&#xa7;" horiz-adv-x="533" d="M261 -228Q203 -228 163 -209T103 -160T83 -100Q83 -81 94 -65T125 -49Q141 -48 150 -55T164 -72T168 -94Q168 -99 165 -108T157 -125Q159 -150 188 -169T257 -189Q303 -189 330 -172T368 -131T380 -84Q380 -53 363
-29T318 15T256 56T187 97Q149 121 115 149T59 215T38 304Q38 346 61 390T126 470Q107 492 97 519T84 582Q83 608 92 638T124 697T182 742T272 760Q326 760 366 742T428 695T451 636Q451 617 441 604T410 589Q394 589 385 596T372 613T368 630Q368 636 370 647T380
664Q370 689 342 705T276 722Q230 722 203 704T165 661T153 613Q153 582 170 557T217 511T282 470T353 428Q391 405 423 377T476 311T496 225Q496 182 473 138T408 58Q427 36 438 9T449 -53Q449 -77 440 -107T409 -164T351 -210T261 -228ZM386 81Q403 103 411 131T420
188Q420 231 402 262T353 316T287 360T214 401T149 447Q132 425 124 397T115 341Q115 298 133 267T182 212T249 168T321 128T386 81Z" />
<glyph unicode="&#xa8;" horiz-adv-x="387" d="M277 611Q257 611 242 628T227 670Q227 695 242 712T277 730Q299 730 313 713T327 670Q327 645 312 628T277 611ZM110 611Q90 611 75 628T60 670Q60 695 75 712T110 730Q132 730 146 713T160 670Q160 645 145 628T110 611Z" />
<glyph unicode="&#xa9;" horiz-adv-x="877" d="M438 -50Q349 -50 277 -21T152 62T72 189T44 348Q44 431 73 503T156 631T281 718T440 750Q527 750 599 719T724 632T806 504T835 348Q835 266 805 194T720 67T593 -19T438 -50ZM441 0Q516 0 576 28T679 105T746 216T769
348Q769 417 746 480T678 594T573 672T438 701Q365 701 305 673T201 594T135 481T111 348Q111 279 133 217T199 105T303 28T441 0ZM444 102Q375 102 321 134T234 222T202 346Q202 390 217 435T264 517T341 576T447 599Q484 599 518 588T578 558L574 594H624V426H584Q576
491 540 518T451 545Q413 545 378 524T319 462T296 358Q296 303 318 259T381 190T473 165Q506 165 547 185T617 239L647 204Q618 164 582 142T509 111T444 102Z" />
<glyph unicode="&#xaa;" horiz-adv-x="409" d="M152 380Q103 380 79 401T54 455Q54 485 72 506T119 542T183 562T250 569V604Q250 624 247 641T231 670T190 683Q171 684 152 673T126 645Q131 640 133 634T135 620Q135 611 128 600T102 589Q87 589 79 599T70 624Q70
647 87 668T133 702T200 716Q254 716 283 688T312 597Q312 569 312 541T311 485Q311 452 318 439T339 425Q343 425 347 427T357 434L368 415Q360 403 341 393T304 382Q278 382 266 395T250 425Q232 405 208 393T152 380ZM160 423Q183 420 206 430T248 459Q248 471
248 492T250 538Q219 538 190 530T142 505T125 461Q127 442 139 434T160 423Z" />
<glyph unicode="&#xab;" horiz-adv-x="530" d="M306 -7L337 24L140 277V279L335 517L303 548L32 277V273L306 -7ZM443 77L475 106L354 269V271L473 435L441 464L245 274V271L443 77Z" />
<glyph unicode="&#xac;" horiz-adv-x="530" d="M430 157L427 284L36 282V344L482 342V157H430Z" />
<glyph unicode="&#xad;" horiz-adv-x="293" d="M67 285V355H422V289L67 285Z" />
<glyph unicode="&#xae;" horiz-adv-x="878" d="M438 -50Q349 -50 277 -21T152 62T72 188T44 348Q44 431 73 504T155 632T280 719T440 750Q528 750 600 719T725 633T806 504T835 348Q835 265 805 193T720 67T593 -19T438 -50ZM441 1Q516 1 576 29T680 105T746 216T769
348Q769 418 746 481T678 594T574 672T438 701Q364 701 304 673T201 595T135 482T112 348Q112 279 134 217T199 106T303 29T441 1ZM251 136V170Q288 171 293 193T299 250V511Q299 525 299 537T301 559L251 554V596Q276 597 309 598T377 600T436 600Q533 598 577
559T621 468Q621 446 610 420T573 370T500 333Q508 329 518 319T542 291Q580 235 601 208T637 174T665 166V132H578Q563 136 545 157T503 212Q489 232 476 252T450 290T428 323Q418 322 400 322T373 323V225Q373 208 373 196T371 174L419 176L421 136H251ZM423
364Q447 365 475 375T523 406T543 465Q543 498 525 519T479 550T420 557Q383 553 378 531T373 473V365Q386 364 398 364T423 364Z" />
<glyph unicode="&#xaf;" horiz-adv-x="355" d="M45 640V700H310V644L45 640Z" />
<glyph unicode="&#xb0;" horiz-adv-x="405" d="M201 404Q154 404 120 425T66 482T47 561Q47 604 68 639T126 695T204 716Q251 716 285 695T339 639T358 561Q358 518 337 482T280 425T201 404ZM203 456Q244 456 269 487T295 561Q295 602 270 634T202 667Q161 667
136 635T110 561Q110 519 135 488T203 456Z" />
<glyph unicode="&#xb1;" horiz-adv-x="530" d="M42 390H488V340H42V390ZM290 583V137H240V583H290ZM42 50H488V0H42V50Z" />
<glyph unicode="&#xb2;" horiz-adv-x="385" d="M61 306Q61 348 77 380T120 439T178 492Q220 527 231 557T242 608Q242 640 226 660T179 680Q154 680 138 668T117 640Q122 636 124 630T126 617Q126 609 120 598T96 588Q83 588 76 597T68 620Q68 640 82 662T124
700T192 716Q223 716 250 705T295 670T312 609Q312 590 304 568T271 519T195 454Q161 429 142 407T116 362L200 360Q229 360 250 360T284 368T296 400H321L317 306H61Z" />
<glyph unicode="&#xb3;" horiz-adv-x="370" d="M172 305Q114 307 84 335T54 395Q54 409 62 420T84 431Q102 432 109 421T116 399Q116 394 114 388T108 377Q111 358 130 349T172 339Q211 339 230 365T250 423Q250 440 244 460T220 495T167 510Q163 510 156 510T140
509V541Q143 541 145 541T151 541Q190 541 207 554T229 585T234 613Q234 638 221 661T169 683Q145 682 131 670T113 643Q118 639 120 633T122 621Q122 613 116 602T92 592Q79 592 72 602T64 625Q64 643 77 664T117 701T183 716Q234 716 265 690T297 619Q297 594
276 568T213 530Q265 525 291 495T317 423Q317 373 279 339T172 305Z" />
<glyph unicode="&#xb4;" horiz-adv-x="252" d="M73 580L45 603L129 738Q144 760 158 763T182 763T194 757Q198 754 203 744T206 720T185 686L73 580Z" />
<glyph unicode="&#xb5;" horiz-adv-x="614" d="M146 -260Q118 -260 106 -237T94 -173L95 500H179V236Q179 179 187 134T219 62T286 35Q323 35 355 56T406 106V500H491L490 141Q490 107 495 87T511 57T535 48Q544 48 554 51T577 65L588 50Q575 32 549 13T487 -6Q450
-6 433 13T411 56Q383 27 341 6T256 -16Q219 -16 191 6T143 65L141 64Q149 -16 157 -62T173 -133T186 -173T191 -206Q191 -225 180 -242T146 -260Z" />
<glyph unicode="&#xb6;" horiz-adv-x="501" d="M172 -255L174 409Q141 412 109 426T55 472T33 555Q33 603 53 635T107 683T175 700H402L400 -255H330L332 659L245 656L242 -255H172Z" />
<glyph unicode="&#xb7;" horiz-adv-x="250" d="M125 264Q102 264 85 282T67 328Q67 355 85 374T126 393Q151 393 167 374T184 328Q184 301 166 283T125 264Z" />
<glyph unicode="&#xb8;" horiz-adv-x="292" d="M51 -241L45 -208Q71 -203 92 -196T130 -180T156 -158T165 -131Q165 -111 152 -105T120 -102T88 -116L54 -100L83 8H139L112 -74Q126 -66 144 -62T180 -57Q211 -57 229 -75T247 -123Q247 -153 227 -174T175 -208T110
-229T51 -241Z" />
<glyph unicode="&#xb9;" horiz-adv-x="283" d="M76 301V329Q107 329 116 350T125 403V644L61 607L45 635L156 716H181L182 372Q182 361 182 351T180 333Q193 334 205 334T231 335V301H76Z" />
<glyph unicode="&#xba;" horiz-adv-x="419" d="M209 380Q164 380 128 400T70 457T48 541Q48 591 69 630T128 693T212 716Q258 716 294 695T351 638T372 553Q373 503 352 464T294 402T209 380ZM217 416Q258 417 280 452T302 538Q302 575 293 608T263 663T208 683Q166
681 144 646T121 559Q121 520 131 487T163 435T217 416Z" />
<glyph unicode="&#xbb;" horiz-adv-x="530" d="M224 -7L193 24L390 277V279L195 517L227 548L498 277V273L224 -7ZM87 77L55 106L176 269V271L57 435L89 464L285 274V271L87 77Z" />
<glyph unicode="&#xbc;" horiz-adv-x="757" d="M76 301V329Q107 329 116 350T125 403V644L61 607L45 635L156 716H181L182 372Q182 361 182 351T180 333Q193 334 205 334T231 335V301H76ZM165 -16L127 10L594 716L638 685L165 -16ZM553 0V29Q584 30 593 48T602
95V105H433V135L632 411H658L659 142L715 141V105H659Q659 87 659 69T659 32Q670 33 680 33T700 34V0H553ZM602 143V314L480 145L602 143Z" />
<glyph unicode="&#xbd;" horiz-adv-x="785" d="M76 301V329Q107 329 116 350T125 403V644L61 607L45 635L156 716H181L182 372Q182 361 182 351T180 333Q193 334 205 334T231 335V301H76ZM165 -16L127 10L594 716L638 685L165 -16ZM484 1Q484 43 500 75T543 134T601
187Q643 222 654 252T665 303Q665 335 649 355T602 375Q577 375 561 363T540 335Q545 331 547 325T549 312Q549 304 543 293T519 283Q506 283 499 292T491 315Q491 335 505 357T547 395T615 411Q646 411 673 400T718 365T735 304Q735 285 727 263T694 214T618 149Q584
124 565 102T539 57L623 55Q652 55 673 55T707 63T719 95H744L740 1H484Z" />
<glyph unicode="&#xbe;" horiz-adv-x="796" d="M172 305Q114 307 84 335T54 395Q54 409 62 420T84 431Q102 432 109 421T116 399Q116 394 114 388T108 377Q111 358 130 349T172 339Q211 339 230 365T250 423Q250 440 244 460T220 495T167 510Q163 510 156 510T140
509V541Q143 541 145 541T151 541Q190 541 207 554T229 585T234 613Q234 638 221 661T169 683Q145 682 131 670T113 643Q118 639 120 633T122 621Q122 613 116 602T92 592Q79 592 72 602T64 625Q64 643 77 664T117 701T183 716Q234 716 265 690T297 619Q297 594
276 568T213 530Q265 525 291 495T317 423Q317 373 279 339T172 305ZM204 -16L166 10L633 716L677 685L204 -16ZM592 0V29Q623 30 632 48T641 95V105H472V135L671 411H697L698 142L754 141V105H698Q698 87 698 69T698 32Q709 33 719 33T739 34V0H592ZM641 143V314L519
145L641 143Z" />
<glyph unicode="&#xbf;" horiz-adv-x="467" d="M244 312Q273 312 298 297T324 245Q324 223 311 204T277 166T232 127Q194 95 162 55T128 -44Q127 -81 138 -111T176 -159T250 -177Q278 -177 302 -166T342 -139T360 -106Q355 -98 352 -88T348 -67Q348 -59 353 -49T368
-31T394 -24Q416 -26 426 -40T437 -77Q437 -106 413 -138T343 -193T235 -216Q157 -216 113 -190T50 -124T33 -42Q36 -1 59 32T116 94T181 146T235 191T257 233Q257 245 248 255T215 266Q207 266 197 265T178 259L166 294Q182 303 204 307T244 312ZM238 516Q258
516 275 501T292 457Q292 433 275 416T238 398Q215 398 200 415T184 457Q184 482 199 499T238 516Z" />
<glyph unicode="&#xc0;" horiz-adv-x="626" d="M-6 0V33Q24 33 40 49T66 93T91 158L297 719H321L544 150Q552 129 562 96T570 40Q587 41 604 42T638 44V0H409V33Q447 34 459 50T468 88T458 128L423 222L163 216L128 109Q121 85 116 71T103 40Q123 41 142 42T181
44V0H-6ZM178 259H409L338 450Q327 481 316 511T293 573H291Q281 545 271 517T249 460L178 259ZM345 760L200 849Q178 863 172 876T168 899T174 914Q176 917 184 922T207 927T241 909L367 789L345 760Z" />
<glyph unicode="&#xc1;" horiz-adv-x="626" d="M-6 0V33Q24 33 40 49T66 93T91 158L297 719H321L544 150Q552 129 562 96T570 40Q587 41 604 42T638 44V0H409V33Q447 34 459 50T468 88T458 128L423 222L163 216L128 109Q121 85 116 71T103 40Q123 41 142 42T181
44V0H-6ZM178 259H409L338 450Q327 481 316 511T293 573H291Q281 545 271 517T249 460L178 259ZM273 760L418 849Q440 863 446 876T450 899T444 914Q442 917 434 922T411 927T377 909L251 789L273 760Z" />
<glyph unicode="&#xc2;" horiz-adv-x="626" d="M-6 0V33Q24 33 40 49T66 93T91 158L297 719H321L544 150Q552 129 562 96T570 40Q587 41 604 42T638 44V0H409V33Q447 34 459 50T468 88T458 128L423 222L163 216L128 109Q121 85 116 71T103 40Q123 41 142 42T181
44V0H-6ZM178 259H409L338 450Q327 481 316 511T293 573H291Q281 545 271 517T249 460L178 259ZM439 760L310 844L183 760L158 789L313 931H315L462 790L439 760Z" />
<glyph unicode="&#xc3;" horiz-adv-x="626" d="M-6 0V33Q24 33 40 49T66 93T91 158L297 719H321L544 150Q552 129 562 96T570 40Q587 41 604 42T638 44V0H409V33Q447 34 459 50T468 88T458 128L423 222L163 216L128 109Q121 85 116 71T103 40Q123 41 142 42T181
44V0H-6ZM178 259H409L338 450Q327 481 316 511T293 573H291Q281 545 271 517T249 460L178 259ZM502 889Q488 848 469 824T427 788T383 777Q354 777 332 787T292 812T258 837T224 848Q202 848 186 832T150 788L116 807Q133 851 165 880T229 910Q259 911 280 901T318
876T352 851T389 840Q416 840 435 859T470 905L502 889Z" />
<glyph unicode="&#xc4;" horiz-adv-x="626" d="M-6 0V33Q24 33 40 49T66 93T91 158L297 719H321L544 150Q552 129 562 96T570 40Q587 41 604 42T638 44V0H409V33Q447 34 459 50T468 88T458 128L423 222L163 216L128 109Q121 85 116 71T103 40Q123 41 142 42T181
44V0H-6ZM178 259H409L338 450Q327 481 316 511T293 573H291Q281 545 271 517T249 460L178 259ZM219 776Q197 776 181 794T165 839Q165 866 181 884T220 903Q243 903 258 885T274 839Q274 813 258 795T219 776ZM399 776Q377 776 361 794T345 839Q345 866 361 884T400
903Q423 903 438 885T453 839Q453 813 437 795T399 776Z" />
<glyph unicode="&#xc5;" horiz-adv-x="626" d="M-6 0V33Q24 33 40 49T66 93T91 158L297 719H321L544 150Q552 129 562 96T570 40Q587 41 604 42T638 44V0H409V33Q447 34 459 50T468 88T458 128L423 222L163 216L128 109Q121 85 116 71T103 40Q123 41 142 42T181
44V0H-6ZM178 259H409L338 450Q327 481 316 511T293 573H291Q281 545 271 517T249 460L178 259ZM310 715Q282 715 256 726T214 760T195 820Q194 855 210 881T253 921T308 936Q335 936 361 925T404 891T423 832Q424 796 408 770T365 729T310 715ZM314 750Q334 751
349 769T365 818Q365 861 348 882T305 902Q282 901 268 882T253 830Q253 793 269 771T314 750Z" />
<glyph unicode="&#xc6;" horiz-adv-x="949" d="M-21 0V33Q6 33 26 47T62 83T91 125L452 660L362 656V700H863L868 525H835Q835 584 817 614T769 655T700 665L614 663Q577 662 561 649T542 611T538 544V384L726 383L719 469H763V259H730Q730 303 718 322T680 345T611
347L538 344V118Q538 91 538 72T535 40L732 37Q775 37 805 52T853 102T870 195H904L898 0H382V36Q410 38 424 46T445 73T451 130V221L208 216L159 143Q142 118 125 92T90 40L166 44V0H-21ZM236 259H451V582L236 259Z" />
<glyph unicode="&#xc7;" horiz-adv-x="699" d="M608 477Q598 571 543 623T400 675Q347 675 301 653T219 588T164 487T144 354Q144 260 180 188T277 76T412 36Q477 36 540 65T643 151L669 130Q626 71 576 39T477 -4T386 -16Q311 -16 249 11T141 86T71 199T46 339Q46
410 67 477T132 598T240 684T393 716Q449 716 499 701T595 655L590 709H644V477H608ZM334 -260L328 -222Q354 -217 376 -210T414 -192T440 -169T450 -141Q450 -120 438 -114T407 -110T374 -123L338 -106L367 8H425L398 -77Q412 -68 431 -65T463 -61Q501 -61 520
-81T540 -132Q540 -162 518 -184T463 -222T395 -247T334 -260Z" />
<glyph unicode="&#xc8;" horiz-adv-x="622" d="M403 259Q403 303 391 322T353 345T284 347L211 344V115Q211 88 211 69T208 37L399 40Q443 41 475 54T525 102T543 195H577L571 0H55V33Q93 35 107 50T122 93T124 156V588Q124 608 125 626T127 660Q109 659 91 658T55
656V700H536L541 525H508Q508 584 490 614T442 655T373 665L287 663Q250 662 234 649T215 611T211 544V384L399 383L392 469H436V259H403ZM363 760L218 849Q196 863 190 876T186 899T192 914Q194 917 202 922T225 927T259 909L385 789L363 760Z" />
<glyph unicode="&#xc9;" horiz-adv-x="622" d="M403 259Q403 303 391 322T353 345T284 347L211 344V115Q211 88 211 69T208 37L399 40Q443 41 475 54T525 102T543 195H577L571 0H55V33Q93 35 107 50T122 93T124 156V588Q124 608 125 626T127 660Q109 659 91 658T55
656V700H536L541 525H508Q508 584 490 614T442 655T373 665L287 663Q250 662 234 649T215 611T211 544V384L399 383L392 469H436V259H403ZM292 760L437 849Q459 863 465 876T469 899T463 914Q461 917 453 922T430 927T396 909L270 789L292 760Z" />
<glyph unicode="&#xca;" horiz-adv-x="622" d="M403 259Q403 303 391 322T353 345T284 347L211 344V115Q211 88 211 69T208 37L399 40Q443 41 475 54T525 102T543 195H577L571 0H55V33Q93 35 107 50T122 93T124 156V588Q124 608 125 626T127 660Q109 659 91 658T55
656V700H536L541 525H508Q508 584 490 614T442 655T373 665L287 663Q250 662 234 649T215 611T211 544V384L399 383L392 469H436V259H403ZM457 760L328 844L201 760L176 789L331 931H333L480 790L457 760Z" />
<glyph unicode="&#xcb;" horiz-adv-x="622" d="M403 259Q403 303 391 322T353 345T284 347L211 344V115Q211 88 211 69T208 37L399 40Q443 41 475 54T525 102T543 195H577L571 0H55V33Q93 35 107 50T122 93T124 156V588Q124 608 125 626T127 660Q109 659 91 658T55
656V700H536L541 525H508Q508 584 490 614T442 655T373 665L287 663Q250 662 234 649T215 611T211 544V384L399 383L392 469H436V259H403ZM237 776Q215 776 199 794T183 839Q183 866 199 884T238 903Q261 903 276 885T292 839Q292 813 276 795T237 776ZM417 776Q395
776 379 794T363 839Q363 866 379 884T418 903Q441 903 456 885T471 839Q471 813 455 795T417 776Z" />
<glyph unicode="&#xcc;" horiz-adv-x="335" d="M280 667Q243 666 229 650T213 607T211 544V119Q211 92 211 73T208 40Q226 41 244 42T280 44V0H55V33Q93 35 107 50T122 93T124 156V588Q124 608 125 626T127 660Q109 659 91 658T55 656V700H280V667ZM463 760L318
849Q296 863 290 876T286 899T292 914Q294 917 302 922T325 927T359 909L485 789L463 760Z" />
<glyph unicode="&#xcd;" horiz-adv-x="335" d="M280 667Q243 666 229 650T213 607T211 544V119Q211 92 211 73T208 40Q226 41 244 42T280 44V0H55V33Q93 35 107 50T122 93T124 156V588Q124 608 125 626T127 660Q109 659 91 658T55 656V700H280V667ZM136 760L281
849Q303 863 309 876T313 899T307 914Q305 917 297 922T274 927T240 909L114 789L136 760Z" />
<glyph unicode="&#xce;" horiz-adv-x="335" d="M280 667Q243 666 229 650T213 607T211 544V119Q211 92 211 73T208 40Q226 41 244 42T280 44V0H55V33Q93 35 107 50T122 93T124 156V588Q124 608 125 626T127 660Q109 659 91 658T55 656V700H280V667ZM557 760L428
844L301 760L276 789L431 931H433L580 790L557 760Z" />
<glyph unicode="&#xcf;" horiz-adv-x="335" d="M280 667Q243 666 229 650T213 607T211 544V119Q211 92 211 73T208 40Q226 41 244 42T280 44V0H55V33Q93 35 107 50T122 93T124 156V588Q124 608 125 626T127 660Q109 659 91 658T55 656V700H280V667ZM337 776Q315
776 299 794T283 839Q283 866 299 884T338 903Q361 903 376 885T392 839Q392 813 376 795T337 776ZM517 776Q495 776 479 794T463 839Q463 866 479 884T518 903Q541 903 556 885T571 839Q571 813 555 795T517 776Z" />
<glyph unicode="&#xd0;" horiz-adv-x="746" d="M19 335V377H393V335H19ZM56 33Q94 35 108 50T123 93T125 156V588Q125 608 126 626T128 660Q110 659 92 658T56 656V700L292 701Q382 701 457 680T586 616T670 506T700 349Q700 280 676 217T604 106T485 29T319 0H56V33ZM212
118Q212 91 212 72T209 40Q236 39 258 39T296 38T316 38Q381 38 433 62T523 128T581 228T602 353Q602 448 568 517T462 625T281 664Q244 664 230 649T214 607T212 544V118Z" />
<glyph unicode="&#xd1;" horiz-adv-x="762" d="M602 -16L203 520Q194 532 186 543T168 567H167L170 139Q170 114 170 89T168 40Q186 41 204 42T240 44V0H57V33Q88 33 101 46T119 78T123 112L124 593Q124 610 124 627T124 660Q108 659 91 658T57 656V700H176L551
198Q564 181 576 164T602 130H603L604 588Q604 608 605 626T607 660Q589 659 571 658T535 656V700H719V667Q682 666 668 650T653 607T652 544L650 -16H602ZM588 889Q574 848 555 824T513 788T469 777Q440 777 418 787T378 812T344 837T310 848Q288 848 272 832T236
788L202 807Q219 851 251 880T315 910Q345 911 366 901T404 876T438 851T475 840Q502 840 521 859T556 905L588 889Z" />
<glyph unicode="&#xd2;" horiz-adv-x="794" d="M402 -16Q307 -16 239 16T129 101T66 220T46 350Q46 413 67 477T131 596T240 683T394 716Q486 716 553 683T663 596T728 477T750 350Q750 288 729 224T665 105T556 17T402 -16ZM404 25Q466 25 512 51T588 122T634
221T650 331Q650 393 633 454T583 565T502 645T391 676Q329 676 283 649T206 578T160 479T144 368Q144 313 159 253T207 141T288 57T404 25ZM425 760L280 849Q258 863 252 876T248 899T254 914Q256 917 264 922T287 927T321 909L447 789L425 760Z" />
<glyph unicode="&#xd3;" horiz-adv-x="794" d="M402 -16Q307 -16 239 16T129 101T66 220T46 350Q46 413 67 477T131 596T240 683T394 716Q486 716 553 683T663 596T728 477T750 350Q750 288 729 224T665 105T556 17T402 -16ZM404 25Q466 25 512 51T588 122T634
221T650 331Q650 393 633 454T583 565T502 645T391 676Q329 676 283 649T206 578T160 479T144 368Q144 313 159 253T207 141T288 57T404 25ZM354 760L499 849Q521 863 527 876T531 899T525 914Q523 917 515 922T492 927T458 909L332 789L354 760Z" />
<glyph unicode="&#xd4;" horiz-adv-x="794" d="M402 -16Q307 -16 239 16T129 101T66 220T46 350Q46 413 67 477T131 596T240 683T394 716Q486 716 553 683T663 596T728 477T750 350Q750 288 729 224T665 105T556 17T402 -16ZM404 25Q466 25 512 51T588 122T634
221T650 331Q650 393 633 454T583 565T502 645T391 676Q329 676 283 649T206 578T160 479T144 368Q144 313 159 253T207 141T288 57T404 25ZM519 760L390 844L263 760L238 789L393 931H395L542 790L519 760Z" />
<glyph unicode="&#xd5;" horiz-adv-x="794" d="M402 -16Q307 -16 239 16T129 101T66 220T46 350Q46 413 67 477T131 596T240 683T394 716Q486 716 553 683T663 596T728 477T750 350Q750 288 729 224T665 105T556 17T402 -16ZM404 25Q466 25 512 51T588 122T634
221T650 331Q650 393 633 454T583 565T502 645T391 676Q329 676 283 649T206 578T160 479T144 368Q144 313 159 253T207 141T288 57T404 25ZM582 889Q568 848 549 824T507 788T463 777Q434 777 412 787T372 812T338 837T304 848Q282 848 266 832T230 788L196 807Q213
851 245 880T309 910Q339 911 360 901T398 876T432 851T469 840Q496 840 515 859T550 905L582 889Z" />
<glyph unicode="&#xd6;" horiz-adv-x="794" d="M402 -16Q307 -16 239 16T129 101T66 220T46 350Q46 413 67 477T131 596T240 683T394 716Q486 716 553 683T663 596T728 477T750 350Q750 288 729 224T665 105T556 17T402 -16ZM404 25Q466 25 512 51T588 122T634
221T650 331Q650 393 633 454T583 565T502 645T391 676Q329 676 283 649T206 578T160 479T144 368Q144 313 159 253T207 141T288 57T404 25ZM299 776Q277 776 261 794T245 839Q245 866 261 884T300 903Q323 903 338 885T354 839Q354 813 338 795T299 776ZM479 776Q457
776 441 794T425 839Q425 866 441 884T480 903Q503 903 518 885T533 839Q533 813 517 795T479 776Z" />
<glyph unicode="&#xd7;" horiz-adv-x="530" d="M129 539L444 224L409 188L93 504L129 539ZM440 501L124 185L90 219L406 535L440 501Z" />
<glyph unicode="&#xd8;" horiz-adv-x="794" d="M611 755L665 721L193 -80L145 -50L611 755ZM401 -16Q306 -16 238 16T128 101T65 220T45 350Q45 413 66 477T130 596T239 683T393 716Q485 716 552 683T662 596T727 477T749 350Q749 288 728 224T664 105T555 17T401
-16ZM403 25Q465 25 511 51T587 122T633 221T649 331Q649 393 632 454T582 565T501 645T390 676Q328 676 282 649T205 578T159 479T143 368Q143 313 158 253T206 141T287 57T403 25Z" />
<glyph unicode="&#xd9;" horiz-adv-x="752" d="M255 667Q222 667 208 653T190 621T187 588V336Q187 280 194 228T223 133T285 66T394 41Q466 41 511 75T578 169T601 307L604 588Q604 608 605 626T607 660Q589 659 572 658T536 656V700H722V667Q684 666 670 650T654
607T652 544L650 312Q650 247 636 188T591 83T508 11T381 -16Q301 -16 247 5T160 70T113 181T99 341V544Q99 570 100 605T103 660Q85 659 67 659T31 657V700H255V667ZM424 760L279 849Q257 863 251 876T247 899T253 914Q255 917 263 922T286 927T320 909L446 789L424
760Z" />
<glyph unicode="&#xda;" horiz-adv-x="752" d="M255 667Q222 667 208 653T190 621T187 588V336Q187 280 194 228T223 133T285 66T394 41Q466 41 511 75T578 169T601 307L604 588Q604 608 605 626T607 660Q589 659 572 658T536 656V700H722V667Q684 666 670 650T654
607T652 544L650 312Q650 247 636 188T591 83T508 11T381 -16Q301 -16 247 5T160 70T113 181T99 341V544Q99 570 100 605T103 660Q85 659 67 659T31 657V700H255V667ZM353 760L498 849Q520 863 526 876T530 899T524 914Q522 917 514 922T491 927T457 909L331 789L353
760Z" />
<glyph unicode="&#xdb;" horiz-adv-x="752" d="M255 667Q222 667 208 653T190 621T187 588V336Q187 280 194 228T223 133T285 66T394 41Q466 41 511 75T578 169T601 307L604 588Q604 608 605 626T607 660Q589 659 572 658T536 656V700H722V667Q684 666 670 650T654
607T652 544L650 312Q650 247 636 188T591 83T508 11T381 -16Q301 -16 247 5T160 70T113 181T99 341V544Q99 570 100 605T103 660Q85 659 67 659T31 657V700H255V667ZM518 760L389 844L262 760L237 789L392 931H394L541 790L518 760Z" />
<glyph unicode="&#xdc;" horiz-adv-x="752" d="M255 667Q222 667 208 653T190 621T187 588V336Q187 280 194 228T223 133T285 66T394 41Q466 41 511 75T578 169T601 307L604 588Q604 608 605 626T607 660Q589 659 572 658T536 656V700H722V667Q684 666 670 650T654
607T652 544L650 312Q650 247 636 188T591 83T508 11T381 -16Q301 -16 247 5T160 70T113 181T99 341V544Q99 570 100 605T103 660Q85 659 67 659T31 657V700H255V667ZM298 776Q276 776 260 794T244 839Q244 866 260 884T299 903Q322 903 337 885T353 839Q353 813
337 795T298 776ZM478 776Q456 776 440 794T424 839Q424 866 440 884T479 903Q502 903 517 885T532 839Q532 813 516 795T478 776Z" />
<glyph unicode="&#xdd;" horiz-adv-x="634" d="M215 0V33Q253 35 266 51T281 94T283 156L284 270L110 545Q85 585 73 612T56 658Q40 657 25 657T-6 656V700H252V667Q206 667 188 653T174 615T199 558L279 432Q288 418 298 403T318 373T341 340H343Q354 362 365
382T386 422L471 583Q476 593 483 606T500 634T519 659Q500 658 480 658T440 656V700H644V667Q595 664 564 633T497 538Q463 474 432 415T371 300Q371 282 371 252T370 192T370 140T370 119Q370 92 370 73T367 40Q388 41 408 42T450 44V0H215ZM296 760L441 849Q463
863 469 876T473 899T467 914Q465 917 457 922T434 927T400 909L274 789L296 760Z" />
<glyph unicode="&#xde;" horiz-adv-x="596" d="M55 0V33Q93 35 107 50T122 93T124 156V588Q124 608 125 626T127 660Q109 659 91 658T55 656V700H280V667Q234 666 223 642T211 578L265 579Q362 579 428 559T530 498T570 392Q573 353 560 313T509 238T406 182T237
161Q230 161 224 161T211 161Q211 108 211 81T208 40Q226 41 244 42T280 44V0H55ZM276 200Q377 202 425 252T473 377Q473 417 460 447T422 499T359 530T271 541Q253 541 239 541T211 539V203Q229 200 243 200T276 200Z" />
<glyph unicode="&#xdf;" horiz-adv-x="681" d="M483 -16Q461 -16 428 -8T368 16L371 -8H329L323 164H354Q358 102 390 63T481 23Q515 23 542 43T569 104Q569 143 537 166T462 210Q427 227 392 247T334 296T311 371Q311 439 358 478T493 516Q494 588 479 629T439
689T390 712T344 717Q281 716 249 681T205 588T193 458L194 106Q194 86 194 71T190 38Q206 39 221 39T253 41V0H49V30Q80 30 92 45T106 88T108 152L107 457L25 455V500H107Q107 575 134 633T214 726T348 760Q391 760 427 749T491 718T540 670T570 607T581 532Q581
519 580 506T576 478Q554 480 523 480T461 476T410 454T390 403Q390 376 406 356T449 319T506 288Q541 270 575 250T631 202T653 132Q653 82 632 49T572 0T483 -16Z" />
<glyph unicode="&#xe0;" horiz-adv-x="516" d="M348 0Q345 17 344 30T341 57Q307 23 268 4T184 -16Q108 -16 71 18T34 103Q34 149 62 182T136 237T235 269T339 279V341Q339 376 333 407T307 458T243 479Q214 480 184 468T139 427Q147 419 149 409T152 389Q152
377 142 362T107 347Q86 347 75 361T64 396Q64 430 89 457T160 500T262 516Q346 516 386 472T425 331Q425 294 425 257T425 182T424 106Q424 90 423 74T420 38Q438 39 455 40T491 42V0H348ZM339 245Q305 244 268 237T199 214T148 175T129 115Q131 78 153 60T207
41Q248 41 278 56T339 100Q338 111 338 124T338 151Q338 156 338 183T339 245ZM304 613L192 719Q174 738 172 752T174 777T183 790Q186 792 195 796T219 797T248 771L332 636L304 613Z" />
<glyph unicode="&#xe1;" horiz-adv-x="516" d="M348 0Q345 17 344 30T341 57Q307 23 268 4T184 -16Q108 -16 71 18T34 103Q34 149 62 182T136 237T235 269T339 279V341Q339 376 333 407T307 458T243 479Q214 480 184 468T139 427Q147 419 149 409T152 389Q152
377 142 362T107 347Q86 347 75 361T64 396Q64 430 89 457T160 500T262 516Q346 516 386 472T425 331Q425 294 425 257T425 182T424 106Q424 90 423 74T420 38Q438 39 455 40T491 42V0H348ZM339 245Q305 244 268 237T199 214T148 175T129 115Q131 78 153 60T207
41Q248 41 278 56T339 100Q338 111 338 124T338 151Q338 156 338 183T339 245ZM198 613L170 636L254 771Q269 793 283 796T307 796T319 790Q323 787 328 777T331 753T310 719L198 613Z" />
<glyph unicode="&#xe2;" horiz-adv-x="516" d="M348 0Q345 17 344 30T341 57Q307 23 268 4T184 -16Q108 -16 71 18T34 103Q34 149 62 182T136 237T235 269T339 279V341Q339 376 333 407T307 458T243 479Q214 480 184 468T139 427Q147 419 149 409T152 389Q152
377 142 362T107 347Q86 347 75 361T64 396Q64 430 89 457T160 500T262 516Q346 516 386 472T425 331Q425 294 425 257T425 182T424 106Q424 90 423 74T420 38Q438 39 455 40T491 42V0H348ZM339 245Q305 244 268 237T199 214T148 175T129 115Q131 78 153 60T207
41Q248 41 278 56T339 100Q338 111 338 124T338 151Q338 156 338 183T339 245ZM379 616L252 725H250L121 623L96 652L255 811H257L406 648L379 616Z" />
<glyph unicode="&#xe3;" horiz-adv-x="516" d="M348 0Q345 17 344 30T341 57Q307 23 268 4T184 -16Q108 -16 71 18T34 103Q34 149 62 182T136 237T235 269T339 279V341Q339 376 333 407T307 458T243 479Q214 480 184 468T139 427Q147 419 149 409T152 389Q152
377 142 362T107 347Q86 347 75 361T64 396Q64 430 89 457T160 500T262 516Q346 516 386 472T425 331Q425 294 425 257T425 182T424 106Q424 90 423 74T420 38Q438 39 455 40T491 42V0H348ZM339 245Q305 244 268 237T199 214T148 175T129 115Q131 78 153 60T207
41Q248 41 278 56T339 100Q338 111 338 124T338 151Q338 156 338 183T339 245ZM419 740Q403 691 373 668T317 645Q286 645 264 658T223 685T186 699Q168 699 148 690T113 657L83 674Q96 709 126 734T185 760Q217 761 238 748T277 721T317 707Q339 707 358 720T390
755L419 740Z" />
<glyph unicode="&#xe4;" horiz-adv-x="516" d="M348 0Q345 17 344 30T341 57Q307 23 268 4T184 -16Q108 -16 71 18T34 103Q34 149 62 182T136 237T235 269T339 279V341Q339 376 333 407T307 458T243 479Q214 480 184 468T139 427Q147 419 149 409T152 389Q152
377 142 362T107 347Q86 347 75 361T64 396Q64 430 89 457T160 500T262 516Q346 516 386 472T425 331Q425 294 425 257T425 182T424 106Q424 90 423 74T420 38Q438 39 455 40T491 42V0H348ZM339 245Q305 244 268 237T199 214T148 175T129 115Q131 78 153 60T207
41Q248 41 278 56T339 100Q338 111 338 124T338 151Q338 156 338 183T339 245ZM335 644Q315 644 300 661T285 703Q285 728 300 745T335 763Q357 763 371 746T385 703Q385 678 370 661T335 644ZM168 644Q148 644 133 661T118 703Q118 728 133 745T168 763Q190 763
204 746T218 703Q218 678 203 661T168 644Z" />
<glyph unicode="&#xe5;" horiz-adv-x="516" d="M348 0Q345 17 344 30T341 57Q307 23 268 4T184 -16Q108 -16 71 18T34 103Q34 149 62 182T136 237T235 269T339 279V341Q339 376 333 407T307 458T243 479Q214 480 184 468T139 427Q147 419 149 409T152 389Q152
377 142 362T107 347Q86 347 75 361T64 396Q64 430 89 457T160 500T262 516Q346 516 386 472T425 331Q425 294 425 257T425 182T424 106Q424 90 423 74T420 38Q438 39 455 40T491 42V0H348ZM339 245Q305 244 268 237T199 214T148 175T129 115Q131 78 153 60T207
41Q248 41 278 56T339 100Q338 111 338 124T338 151Q338 156 338 183T339 245ZM252 603Q228 603 206 612T169 642T153 694Q152 724 166 746T203 781T250 794Q274 794 296 785T333 755T349 704Q350 673 336 651T299 616T252 603ZM255 634Q273 635 284 651T296 693Q296
725 284 744T250 763Q231 762 219 746T206 703Q206 674 219 654T255 634Z" />
<glyph unicode="&#xe6;" horiz-adv-x="777" d="M180 -16Q112 -16 73 17T34 100Q34 146 62 179T135 234T233 266T336 275V336Q336 372 330 404T304 458T237 479Q204 479 177 463T138 420Q145 414 148 404T151 387Q151 376 142 360T108 345Q89 345 78 358T66 393Q66
423 88 451T153 498T252 516Q302 516 337 493T390 430Q418 468 459 492T553 516Q604 516 643 494T706 424T730 295L425 289Q419 207 437 151T491 65T573 35Q620 35 653 59T711 118L736 98Q709 56 679 31T616 -5T549 -16Q491 -16 445 6T371 79Q332 27 283 6T180
-16ZM199 41Q244 38 280 56T345 107Q344 121 342 145T338 195T335 241Q301 240 265 233T197 210T147 171T129 112Q131 75 153 59T199 41ZM432 331H640Q640 367 634 400T608 455T549 477Q510 477 486 457T450 404T432 331Z" />
<glyph unicode="&#xe7;" horiz-adv-x="532" d="M288 -16Q221 -16 165 14T75 102T41 241Q41 293 60 342T113 430T196 493T302 516Q358 516 399 499T464 454T487 393Q487 371 475 356T440 340Q415 339 405 355T394 385Q394 395 397 405T409 425Q401 449 381 460T340
475T304 479Q236 479 190 425T143 266Q143 199 164 147T225 66T315 36Q362 36 405 61T472 122L498 102Q472 60 436 34T361 -4T288 -16ZM247 -241L241 -208Q267 -203 288 -196T326 -180T352 -158T361 -131Q361 -111 348 -105T316 -102T284 -116L250 -100L279 8H335L308
-74Q322 -66 340 -62T376 -57Q407 -57 425 -75T443 -123Q443 -153 423 -174T371 -208T306 -229T247 -241Z" />
<glyph unicode="&#xe8;" horiz-adv-x="542" d="M286 -16Q217 -16 162 16T74 108T42 249Q42 319 73 380T162 478T294 516Q336 516 372 503T437 462T481 393T497 295L145 289Q145 213 161 156T215 67T310 35Q341 35 373 46T434 76T479 118L503 98Q476 56 438 31T360
-5T286 -16ZM148 331H403Q403 367 393 400T358 455T295 477Q237 477 199 443T148 331ZM333 580L221 686Q203 705 201 719T203 744T212 757Q215 759 224 763T248 764T277 738L361 603L333 580Z" />
<glyph unicode="&#xe9;" horiz-adv-x="542" d="M286 -16Q217 -16 162 16T74 108T42 249Q42 319 73 380T162 478T294 516Q336 516 372 503T437 462T481 393T497 295L145 289Q145 213 161 156T215 67T310 35Q341 35 373 46T434 76T479 118L503 98Q476 56 438 31T360
-5T286 -16ZM148 331H403Q403 367 393 400T358 455T295 477Q237 477 199 443T148 331ZM227 580L199 603L283 738Q298 760 312 763T336 763T348 757Q352 754 357 744T360 720T339 686L227 580Z" />
<glyph unicode="&#xea;" horiz-adv-x="542" d="M286 -16Q217 -16 162 16T74 108T42 249Q42 319 73 380T162 478T294 516Q336 516 372 503T437 462T481 393T497 295L145 289Q145 213 161 156T215 67T310 35Q341 35 373 46T434 76T479 118L503 98Q476 56 438 31T360
-5T286 -16ZM148 331H403Q403 367 393 400T358 455T295 477Q237 477 199 443T148 331ZM408 583L281 692H279L150 590L125 619L284 778H286L435 615L408 583Z" />
<glyph unicode="&#xeb;" horiz-adv-x="542" d="M286 -16Q217 -16 162 16T74 108T42 249Q42 319 73 380T162 478T294 516Q336 516 372 503T437 462T481 393T497 295L145 289Q145 213 161 156T215 67T310 35Q341 35 373 46T434 76T479 118L503 98Q476 56 438 31T360
-5T286 -16ZM148 331H403Q403 367 393 400T358 455T295 477Q237 477 199 443T148 331ZM364 611Q344 611 329 628T314 670Q314 695 329 712T364 730Q386 730 400 713T414 670Q414 645 399 628T364 611ZM197 611Q177 611 162 628T147 670Q147 695 162 712T197 730Q219
730 233 713T247 670Q247 645 232 628T197 611Z" />
<glyph unicode="&#xec;" horiz-adv-x="281" d="M44 30Q75 30 87 45T101 88T103 152V380Q103 396 104 410T107 445Q89 444 72 443T36 441V483Q80 483 104 487T140 497T160 510H189V106Q189 86 189 71T185 38Q201 39 216 39T248 41V0H44V30ZM194 580L82 686Q64 705
62 719T64 744T73 757Q76 759 85 763T109 764T138 738L222 603L194 580Z" />
<glyph unicode="&#xed;" horiz-adv-x="281" d="M44 30Q75 30 87 45T101 88T103 152V380Q103 396 104 410T107 445Q89 444 72 443T36 441V483Q80 483 104 487T140 497T160 510H189V106Q189 86 189 71T185 38Q201 39 216 39T248 41V0H44V30ZM88 580L60 603L144 738Q159
760 173 763T197 763T209 757Q213 754 218 744T221 720T200 686L88 580Z" />
<glyph unicode="&#xee;" horiz-adv-x="281" d="M44 30Q75 30 87 45T101 88T103 152V380Q103 396 104 410T107 445Q89 444 72 443T36 441V483Q80 483 104 487T140 497T160 510H189V106Q189 86 189 71T185 38Q201 39 216 39T248 41V0H44V30ZM396 778H398L525 615L497
587L394 683H392L292 590L261 619L396 778Z" />
<glyph unicode="&#xef;" horiz-adv-x="281" d="M44 30Q75 30 87 45T101 88T103 152V380Q103 396 104 410T107 445Q89 444 72 443T36 441V483Q80 483 104 487T140 497T160 510H189V106Q189 86 189 71T185 38Q201 39 216 39T248 41V0H44V30ZM481 611Q461 611 446
628T431 670Q431 695 446 712T481 730Q503 730 517 713T531 670Q531 645 516 628T481 611ZM314 611Q294 611 279 628T264 670Q264 695 279 712T314 730Q336 730 350 713T364 670Q364 645 349 628T314 611Z" />
<glyph unicode="&#xf0;" horiz-adv-x="559" d="M259 -16Q199 -16 150 12T72 94T43 222Q43 275 57 323T99 410T167 471T257 496Q295 498 337 483T403 430H405Q395 470 374 514T321 599T243 669L182 592L146 622L204 691Q182 702 157 709T103 718L107 760Q143 758
175 750T237 729L291 793L320 766L276 710Q348 670 398 603T475 450T502 272Q503 193 478 128T398 23T259 -16ZM275 24Q312 24 343 47T393 115T413 229Q413 264 407 302T386 375T346 431T283 455Q238 457 207 428T160 350T143 243Q143 137 181 81T275 24Z" />
<glyph unicode="&#xf1;" horiz-adv-x="607" d="M44 0V30Q75 30 87 45T101 88T103 152L104 380Q104 396 104 412T108 445Q90 444 73 443T37 441V483Q81 483 103 487T137 497T155 510H184Q185 503 185 494T187 474T188 449Q210 468 236 483T292 507T351 516Q438
516 478 462T518 292V106Q518 86 518 71T514 38Q530 39 545 39T577 41V0H373V30Q404 30 416 45T430 88T432 152V292Q431 378 404 422T317 465Q281 464 247 446T189 400Q190 392 190 382T190 361L189 106Q189 86 189 71T185 38Q201 39 216 39T248 41V0H44ZM487 707Q471
658 441 635T385 612Q354 612 332 625T291 652T254 666Q236 666 216 657T181 624L151 641Q164 676 194 701T253 727Q285 728 306 715T345 688T385 674Q407 674 426 687T458 722L487 707Z" />
<glyph unicode="&#xf2;" horiz-adv-x="585" d="M292 -16Q222 -16 165 16T75 106T41 238Q41 317 74 380T164 479T292 516Q362 516 419 483T510 392T544 262Q544 185 511 122T420 21T292 -16ZM300 24Q353 24 384 54T428 132T442 233Q442 278 434 321T407 400T361
457T292 478Q240 478 207 448T159 370T143 267Q143 205 160 150T212 59T300 24ZM345 580L233 686Q215 705 213 719T215 744T224 757Q227 759 236 763T260 764T289 738L373 603L345 580Z" />
<glyph unicode="&#xf3;" horiz-adv-x="585" d="M292 -16Q222 -16 165 16T75 106T41 238Q41 317 74 380T164 479T292 516Q362 516 419 483T510 392T544 262Q544 185 511 122T420 21T292 -16ZM300 24Q353 24 384 54T428 132T442 233Q442 278 434 321T407 400T361
457T292 478Q240 478 207 448T159 370T143 267Q143 205 160 150T212 59T300 24ZM239 580L211 603L295 738Q310 760 324 763T348 763T360 757Q364 754 369 744T372 720T351 686L239 580Z" />
<glyph unicode="&#xf4;" horiz-adv-x="585" d="M292 -16Q222 -16 165 16T75 106T41 238Q41 317 74 380T164 479T292 516Q362 516 419 483T510 392T544 262Q544 185 511 122T420 21T292 -16ZM300 24Q353 24 384 54T428 132T442 233Q442 278 434 321T407 400T361
457T292 478Q240 478 207 448T159 370T143 267Q143 205 160 150T212 59T300 24ZM420 583L293 692H291L162 590L137 619L296 778H298L447 615L420 583Z" />
<glyph unicode="&#xf5;" horiz-adv-x="585" d="M292 -16Q222 -16 165 16T75 106T41 238Q41 317 74 380T164 479T292 516Q362 516 419 483T510 392T544 262Q544 185 511 122T420 21T292 -16ZM300 24Q353 24 384 54T428 132T442 233Q442 278 434 321T407 400T361
457T292 478Q240 478 207 448T159 370T143 267Q143 205 160 150T212 59T300 24ZM460 707Q444 658 414 635T358 612Q327 612 305 625T264 652T227 666Q209 666 189 657T154 624L124 641Q137 676 167 701T226 727Q258 728 279 715T318 688T358 674Q380 674 399 687T431
722L460 707Z" />
<glyph unicode="&#xf6;" horiz-adv-x="585" d="M292 -16Q222 -16 165 16T75 106T41 238Q41 317 74 380T164 479T292 516Q362 516 419 483T510 392T544 262Q544 185 511 122T420 21T292 -16ZM300 24Q353 24 384 54T428 132T442 233Q442 278 434 321T407 400T361
457T292 478Q240 478 207 448T159 370T143 267Q143 205 160 150T212 59T300 24ZM376 611Q356 611 341 628T326 670Q326 695 341 712T376 730Q398 730 412 713T426 670Q426 645 411 628T376 611ZM209 611Q189 611 174 628T159 670Q159 695 174 712T209 730Q231 730
245 713T259 670Q259 645 244 628T209 611Z" />
<glyph unicode="&#xf7;" horiz-adv-x="530" d="M264 130Q241 130 224 148T206 194Q206 221 224 240T265 259Q290 259 306 240T323 194Q323 167 305 149T264 130ZM264 462Q241 462 224 480T206 526Q206 553 224 572T265 591Q290 591 306 572T323 526Q323 499 305
481T264 462ZM42 390H488V340H42V390Z" />
<glyph unicode="&#xf8;" horiz-adv-x="585" d="M117 -75L80 -48L466 565L513 534L117 -75ZM292 -16Q222 -16 165 16T75 106T41 238Q41 317 74 380T164 479T292 516Q362 516 419 483T510 392T544 262Q544 185 511 122T420 21T292 -16ZM300 24Q353 24 384 54T428
132T442 233Q442 278 434 321T407 400T361 457T292 478Q240 478 207 448T159 370T143 267Q143 205 160 150T212 59T300 24Z" />
<glyph unicode="&#xf9;" horiz-adv-x="597" d="M255 -16Q201 -16 165 4T110 72T91 202V380Q91 396 91 412T95 445Q78 444 61 444T26 442V483H57Q100 483 119 491T150 510H179V205Q179 119 203 77T287 35Q325 36 359 58T415 112V369Q415 393 416 410T420 445Q402
444 384 444T348 442V483H379Q422 483 441 491T472 510H501L500 132Q500 116 499 87T496 38Q514 39 532 40T568 42V0H425Q422 17 421 32T418 60Q387 29 343 7T255 -16ZM349 580L237 686Q219 705 217 719T219 744T228 757Q231 759 240 763T264 764T293 738L377 603L349
580Z" />
<glyph unicode="&#xfa;" horiz-adv-x="597" d="M255 -16Q201 -16 165 4T110 72T91 202V380Q91 396 91 412T95 445Q78 444 61 444T26 442V483H57Q100 483 119 491T150 510H179V205Q179 119 203 77T287 35Q325 36 359 58T415 112V369Q415 393 416 410T420 445Q402
444 384 444T348 442V483H379Q422 483 441 491T472 510H501L500 132Q500 116 499 87T496 38Q514 39 532 40T568 42V0H425Q422 17 421 32T418 60Q387 29 343 7T255 -16ZM243 580L215 603L299 738Q314 760 328 763T352 763T364 757Q368 754 373 744T376 720T355 686L243
580Z" />
<glyph unicode="&#xfb;" horiz-adv-x="597" d="M255 -16Q201 -16 165 4T110 72T91 202V380Q91 396 91 412T95 445Q78 444 61 444T26 442V483H57Q100 483 119 491T150 510H179V205Q179 119 203 77T287 35Q325 36 359 58T415 112V369Q415 393 416 410T420 445Q402
444 384 444T348 442V483H379Q422 483 441 491T472 510H501L500 132Q500 116 499 87T496 38Q514 39 532 40T568 42V0H425Q422 17 421 32T418 60Q387 29 343 7T255 -16ZM424 583L297 692H295L166 590L141 619L300 778H302L451 615L424 583Z" />
<glyph unicode="&#xfc;" horiz-adv-x="597" d="M255 -16Q201 -16 165 4T110 72T91 202V380Q91 396 91 412T95 445Q78 444 61 444T26 442V483H57Q100 483 119 491T150 510H179V205Q179 119 203 77T287 35Q325 36 359 58T415 112V369Q415 393 416 410T420 445Q402
444 384 444T348 442V483H379Q422 483 441 491T472 510H501L500 132Q500 116 499 87T496 38Q514 39 532 40T568 42V0H425Q422 17 421 32T418 60Q387 29 343 7T255 -16ZM380 611Q360 611 345 628T330 670Q330 695 345 712T380 730Q402 730 416 713T430 670Q430 645
415 628T380 611ZM213 611Q193 611 178 628T163 670Q163 695 178 712T213 730Q235 730 249 713T263 670Q263 645 248 628T213 611Z" />
<glyph unicode="&#xfd;" horiz-adv-x="528" d="M121 -271Q90 -271 68 -256T46 -210Q46 -192 58 -177T89 -162Q113 -161 121 -177T130 -205Q130 -208 130 -211T129 -219Q132 -221 140 -221Q152 -221 166 -211T191 -182Q204 -160 221 -116T261 -11L105 323Q79 379
68 412T52 461L4 459V500H211V470H207Q165 467 161 439T184 352L301 101Q324 165 345 227T387 352Q395 374 403 397T420 439T436 463L367 459V500H524V470Q487 456 469 424T431 340L306 -9Q276 -93 251 -151T196 -240T121 -271ZM234 580L206 603L290 738Q305 760
319 763T343 763T355 757Q359 754 364 744T367 720T346 686L234 580Z" />
<glyph unicode="&#xfe;" horiz-adv-x="577" d="M15 -255V-225Q46 -225 58 -210T72 -167T74 -103L76 625Q76 641 76 657T80 690Q62 689 45 688T9 686V728Q53 728 77 732T113 742T132 755H161L160 462Q191 487 230 501T311 516Q372 516 422 486T503 399T534 264Q534
179 499 116T407 19T279 -16Q244 -16 215 -9T160 15V-149Q160 -169 160 -184T156 -217Q172 -216 187 -216T219 -214V-255H15ZM277 24Q325 24 359 53T412 132T431 249Q431 303 415 353T366 435T277 467Q243 467 213 453T160 416V62Q185 43 214 34T277 24Z" />
<glyph unicode="&#xff;" horiz-adv-x="528" d="M121 -271Q90 -271 68 -256T46 -210Q46 -192 58 -177T89 -162Q113 -161 121 -177T130 -205Q130 -208 130 -211T129 -219Q132 -221 140 -221Q152 -221 166 -211T191 -182Q204 -160 221 -116T261 -11L105 323Q79 379
68 412T52 461L4 459V500H211V470H207Q165 467 161 439T184 352L301 101Q324 165 345 227T387 352Q395 374 403 397T420 439T436 463L367 459V500H524V470Q487 456 469 424T431 340L306 -9Q276 -93 251 -151T196 -240T121 -271ZM371 611Q351 611 336 628T321 670Q321
695 336 712T371 730Q393 730 407 713T421 670Q421 645 406 628T371 611ZM204 611Q184 611 169 628T154 670Q154 695 169 712T204 730Q226 730 240 713T254 670Q254 645 239 628T204 611Z" />
<glyph unicode="&#x2013;" horiz-adv-x="590" d="M66 285V355H521V289L66 285Z" />
<glyph unicode="&#x2014;" horiz-adv-x="841" d="M66 285V355H771V289L66 285Z" />
<glyph unicode="&#x2018;" horiz-adv-x="224" d="M120 760L147 740Q136 726 124 700T105 643T101 581Q108 584 114 585T126 587Q145 587 158 573T172 538Q172 510 156 495T117 480Q82 480 64 506T46 571Q46 596 55 632T81 702T120 760Z" />
<glyph unicode="&#x2019;" horiz-adv-x="174" d="M77 480L50 500Q61 514 73 540T92 597T96 659Q89 656 83 655T71 653Q52 653 39 667T25 702Q25 730 41 745T80 760Q115 760 133 734T151 669Q151 644 142 608T116 538T77 480Z" />
<glyph unicode="&#x201a;" horiz-adv-x="253" d="M118 -179L91 -159Q102 -145 114 -119T133 -62T137 0Q130 -3 124 -4T112 -6Q93 -6 80 8T66 43Q66 71 82 86T121 101Q156 101 174 75T192 10Q192 -15 183 -51T157 -121T118 -179Z" />
<glyph unicode="&#x201c;" horiz-adv-x="400" d="M120 760L147 740Q136 726 124 700T105 643T101 581Q108 584 114 585T126 587Q145 587 158 573T172 538Q172 510 156 495T117 480Q82 480 64 506T46 571Q46 596 55 632T81 702T120 760ZM296 760L323 740Q312 726
300 700T281 643T277 581Q284 584 290 585T302 587Q321 587 334 573T348 538Q348 510 332 495T293 480Q258 480 240 506T222 571Q222 596 231 632T257 702T296 760Z" />
<glyph unicode="&#x201d;" horiz-adv-x="349" d="M77 480L50 500Q61 514 73 540T92 597T96 659Q89 656 83 655T71 653Q52 653 39 667T25 702Q25 730 41 745T80 760Q115 760 133 734T151 669Q151 644 142 608T116 538T77 480ZM253 480L226 500Q237 514 249 540T268
597T272 659Q265 656 259 655T247 653Q228 653 215 667T201 702Q201 730 217 745T256 760Q291 760 309 734T327 669Q327 644 318 608T292 538T253 480Z" />
<glyph unicode="&#x201e;" horiz-adv-x="429" d="M118 -179L91 -159Q102 -145 114 -119T133 -62T137 0Q130 -3 124 -4T112 -6Q93 -6 80 8T66 43Q66 71 82 86T121 101Q156 101 174 75T192 10Q192 -15 183 -51T157 -121T118 -179ZM294 -179L267 -159Q278 -145 290
-119T309 -62T313 0Q306 -3 300 -4T288 -6Q269 -6 256 8T242 43Q242 71 258 86T297 101Q332 101 350 75T368 10Q368 -15 359 -51T333 -121T294 -179Z" />
<glyph unicode="&#x2022;" horiz-adv-x="401" d="M200 226Q159 226 125 245T70 299T50 374Q50 416 70 449T124 502T200 522Q242 522 276 503T330 450T351 374Q351 333 331 299T276 246T200 226Z" />
<glyph unicode="&#x2039;" horiz-adv-x="383" d="M305 -7L336 25L139 278V280L334 517L302 549L31 278V274L305 -7Z" />
<glyph unicode="&#x203a;" horiz-adv-x="383" d="M77 -7L46 25L243 278V280L48 517L80 549L351 278V274L77 -7Z" />
</font>
</defs>
</svg>
